Классический форум-трекер
canvas not supported
Нас вместе: 4 232 304

Матрица: Трилогия / The Matrix: Trilogy (1999,2003) BDRip [H.264]


Страницы:  1, 2  След. 
 
RSS
Начать новую тему   Ответить на тему    Торрент-трекер NNM-Club -> Коллекции / *логии -> Зарубежное кино (коллекции / *логии)
Автор Сообщение
Маrilуn Моnrое ®
Стаж: 14 лет 3 мес.
Сообщений: 1457
Ratio: 74.399
Поблагодарили: 224597
100%
Откуда: Южный Урал™
ussr.gif
Матрица / The Matrix (1999) BDRip [H.264]
« Добро пожаловать в реальный мир »

Год выпуска: 1999
Производство: США, Австралия | Warner Bros. Pictures, Village Roadshow Pictures, Silver Pictures, Groucho II Film Partnership
Жанр: фантастика, боевик

Режиссер: Энди Вачовски, Лана Вачовски
Продюсер: Джоэл Силвер, Брюс Берман, Дэн Краччиоло
Актеры: Киану Ривз, Лоренс Фишбёрн, Кэрри-Энн Мосс, Хьюго Уивинг, Джо Пантольяно, Глория Фостер, Маркус Чонг, Джулиан Араханга, Мэтт Доран, Белинда МакКлори, Энтони Рэй Паркер, Пол Годдард, Роберт Тейлор

Описание фильма: Жизнь Томаса Андерсона разделена на две части: днём он самый обычный офисный работник, получающий нагоняи от начальства, а ночью превращается в хакера по имени Нео, и нет места в сети, куда он не смог бы дотянуться. Но однажды всё меняется - герой, сам того не желая, узнаёт страшную правду: всё, что его окружает - не более, чем иллюзия, Матрица, а люди - всего лишь источник питания для искусственного интеллекта, поработившего человечество. И только Нео под силу изменить расстановку сил в этом ставшем вдруг чужим и страшным мире.

Перевод: Профессиональный дублированный, профессиональный двухголосый, авторский
Вид субтитров: Вшитые отключаемые
Язык субтитров: Русский, английский

Дата мировой премьеры: 31 марта 1999
Дата российской премьеры: 14 октября 1999
Дата выхода DVD релиза: 12 сентября 2000, «Мост-Видео»
Дата выхода Blu-ray релиза: 27 января 2009, «Юниверсал Пикчерс Рус»

Продолжительность: 02:16:18
Возраст 16+: Зрителям, достигшим 16 лет
Рейтинг MPAA R: Лицам до 17 лет обязательно присутствие взрослого

Качество видео: BDRip [H.264]
Видео: MPEG-4 AVC/H.264, 3500 Kbps, 1024 x 424
Аудио 1: Русский AC3 5.1, 384 Kbps, 48.0 KHz (Полное дублирование) Blu-ray CEE
Аудио 2: Русский AC3 5.1, 384 Kbps, 48.0 KHz (Двухголосый закадровый) П. Гланц и И. Королёва
Аудио 3: Русский AC3 5.1, 384 Kbps, 48.0 KHz (Одноголосый закадровый) А. Гаврилов
Аудио 4: Русский AC3 5.1, 384 Kbps, 48.0 KHz (Одноголосый закадровый) Ю. Живов
Аудио 5: Английский AC3 5.1, 448 Kbps, 48.0 KHz (Оригинал)
Общее
Полное имя : Матрица I.mkv
Формат : Matroska
Версия формата : Version 1
Размер файла : 5,23 Гбайт
Продолжительность : 2 ч. 16 м.
Общий поток : 5488 Кбит/сек
Дата кодирования : UTC 2014-12-19 04:31:20
Программа кодирования : mkvmerge v2.4.1 ('Use Me') built on Dec 5 2008 18:30:05
Библиотека кодирования : libebml v0.7.7 + libmatroska v0.8.1

Видео
Идентификатор : 1
Формат : AVC
Формат/Информация : Advanced Video Codec
Профиль формата : High@L4.1
Параметр CABAC формата : Да
Параметр ReFrames формата : 10 кадров
Идентификатор кодека : V_MPEG4/ISO/AVC
Продолжительность : 2 ч. 16 м.
Битрейт : 3500 Кбит/сек
Ширина : 1024 пикселя
Высота : 424 пикселя
Соотношение сторон : 2,40:1
Режим частоты кадров : Постоянный
Частота кадров : 23,976 кадра/сек
Цветовое пространство : YUV
Субдискретизация насыщенности : 4:2:0
Битовая глубина : 8 бит
Тип развёртки : Прогрессивная
Бит/(Пиксели*Кадры) : 0.336
Размер потока : 3,23 Гбайт (62%)
Заголовок : Матрица (1999)
Библиотека кодирования : x264 core 129 r2230 1cffe9f
Настройки программы : cabac=1 / ref=10 / deblock=1:-3:-3 / analyse=0x3:0x133 / me=umh / subme=10 / psy=1 / psy_rd=1.00:0.10 / mixed_ref=1 / me_range=48 / chroma_me=1 / trellis=2 / 8x8dct=1 / cqm=0 / deadzone=21,11 / fast_pskip=0 / chroma_qp_offset=-3 / threads=6 / lookahead_threads=1 / sliced_threads=0 / nr=0 / decimate=1 / interlaced=0 / bluray_compat=0 / constrained_intra=0 / bframes=5 / b_pyramid=2 / b_adapt=2 / b_bias=0 / direct=3 / weightb=1 / open_gop=0 / weightp=2 / keyint=240 / keyint_min=22 / scenecut=40 / intra_refresh=0 / rc_lookahead=40 / rc=2pass / mbtree=1 / bitrate=3500 / ratetol=1.0 / qcomp=0.60 / qpmin=10 / qpmax=51 / qpstep=4 / cplxblur=20.0 / qblur=0.5 / ip_ratio=1.40 / aq=1:1.00
Язык : English

Аудио #1
Идентификатор : 2
Формат : AC-3
Формат/Информация : Audio Coding 3
Расширение режима : CM (complete main)
Параметр Endianness формата : Big
Идентификатор кодека : A_AC3
Продолжительность : 2 ч. 16 м.
Вид битрейта : Постоянный
Битрейт : 384 Кбит/сек
Каналы : 6 каналов
Расположение каналов : Front: L C R, Side: L R, LFE
Частота : 48,0 КГц
Битовая глубина : 16 бит
Метод сжатия : С потерями
Размер потока : 374 Мбайт (7%)
Заголовок : AC3 (Дублированный) Blu-Ray CEE
Язык : Russian

Аудио #2
Идентификатор : 3
Формат : AC-3
Формат/Информация : Audio Coding 3
Расширение режима : CM (complete main)
Параметр Endianness формата : Big
Идентификатор кодека : A_AC3
Продолжительность : 2 ч. 16 м.
Вид битрейта : Постоянный
Битрейт : 384 Кбит/сек
Каналы : 6 каналов
Расположение каналов : Front: L C R, Side: L R, LFE
Частота : 48,0 КГц
Битовая глубина : 16 бит
Метод сжатия : С потерями
Размер потока : 374 Мбайт (7%)
Заголовок : AC3 (Двухголосый) П. Гланц и И. Королёва
Язык : Russian

Аудио #3
Идентификатор : 4
Формат : AC-3
Формат/Информация : Audio Coding 3
Расширение режима : CM (complete main)
Параметр Endianness формата : Big
Идентификатор кодека : A_AC3
Продолжительность : 2 ч. 16 м.
Вид битрейта : Постоянный
Битрейт : 384 Кбит/сек
Каналы : 6 каналов
Расположение каналов : Front: L C R, Side: L R, LFE
Частота : 48,0 КГц
Битовая глубина : 16 бит
Метод сжатия : С потерями
Размер потока : 374 Мбайт (7%)
Заголовок : AC3 (Одноголосый) А. Гаврилов
Язык : Russian

Аудио #4
Идентификатор : 5
Формат : AC-3
Формат/Информация : Audio Coding 3
Расширение режима : CM (complete main)
Параметр Endianness формата : Big
Идентификатор кодека : A_AC3
Продолжительность : 2 ч. 16 м.
Вид битрейта : Постоянный
Битрейт : 384 Кбит/сек
Каналы : 6 каналов
Расположение каналов : Front: L C R, Side: L R, LFE
Частота : 48,0 КГц
Битовая глубина : 16 бит
Метод сжатия : С потерями
Размер потока : 374 Мбайт (7%)
Заголовок : AC3 (Одноголосый) Ю. Живов
Язык : Russian

Аудио #5
Идентификатор : 6
Формат : AC-3
Формат/Информация : Audio Coding 3
Расширение режима : CM (complete main)
Параметр Endianness формата : Big
Идентификатор кодека : A_AC3
Продолжительность : 2 ч. 16 м.
Вид битрейта : Постоянный
Битрейт : 448 Кбит/сек
Каналы : 6 каналов
Расположение каналов : Front: L C R, Side: L R, LFE
Частота : 48,0 КГц
Битовая глубина : 16 бит
Метод сжатия : С потерями
Размер потока : 437 Мбайт (8%)
Заголовок : AC3 (Оригинал)
Язык : English

Текст #1
Идентификатор : 7
Формат : UTF-8
Идентификатор кодека : S_TEXT/UTF8
Идентификатор кодека/Информация : UTF-8 Plain Text
Заголовок : Русские
Язык : Russian

Текст #2
Идентификатор : 8
Формат : UTF-8
Идентификатор кодека : S_TEXT/UTF8
Идентификатор кодека/Информация : UTF-8 Plain Text
Заголовок : Английские
Язык : English

Скриншоты:

Матрица: Перезагрузка / The Matrix Reloaded (2003) BDRip [H.264]
« Одни машины помогают нам жить, другие – пытаются нас убить »

Год выпуска: 2003
Производство: США, Австралия | Warner Bros. Pictures, Village Roadshow Pictures, Silver Pictures, NPV Entertainment
Жанр: фантастика, боевик

Режиссер: Энди Вачовски, Лана Вачовски
Продюсер: Джоэл Силвер, Брюс Берман, Дэвид Форбс
Актеры: Киану Ривз, Лоренс Фишбёрн, Кэрри-Энн Мосс, Хьюго Уивинг, Хэролд Перрино, Джада Пинкетт Смит, Моника Беллуччи, Глория Фостер, Джина Торрес, Нэтаниэл Лис, Гарри Дж. Ленникс, Колин Чоу, Хельмут Бакайтис

Описание фильма: Борцы за свободу Нео, Тринити и Морфеус продолжают руководить восстанием людей против Армии Машин. Для уничтожения системы репрессий и эксплуатации они вынуждены прибегнуть не только к арсеналу превосходного оружия, но и к своим выдающимся навыкам. Участие в миссии по спасению человеческой расы от ее полного истребления приносит им более глубокое понимание конструкции Матрицы и осознание центральной роли Нео в судьбе человечества.

Перевод: Профессиональный дублированный, профессиональный двухголосый, авторский
Вид субтитров: Вшитые отключаемые
Язык субтитров: Русский, английский

Дата мировой премьеры: 7 мая 2003
Дата российской премьеры: 21 мая 2003, «Каро-Премьер»
Дата выхода DVD релиза: 14 октября 2003, «Premier Digital»
Дата выхода Blu-ray релиза: 27 января 2009, «Юниверсал Пикчерс Рус»

Продолжительность: 02:18:15
Возраст 16+: Зрителям, достигшим 16 лет
Рейтинг MPAA R: Лицам до 17 лет обязательно присутствие взрослого

Качество видео: BDRip [H.264]
Видео: MPEG-4 AVC/H.264, 3500 Kbps, 1024 x 424
Аудио 1: Русский AC3 5.1, 384 Kbps, 48.0 KHz (Полное дублирование) Blu-ray CEE
Аудио 2: Русский AC3 5.1, 384 Kbps, 48.0 KHz (Двухголосый закадровый) П. Гланц и И. Королёва
Аудио 3: Русский AC3 5.1, 384 Kbps, 48.0 KHz (Одноголосый закадровый) А. Гаврилов
Аудио 4: Русский AC3 5.1, 384 Kbps, 48.0 KHz (Одноголосый закадровый) Ю. Живов
Аудио 5: Английский AC3 5.1, 448 Kbps, 48.0 KHz (Оригинал)
Общее
Полное имя : Матрица II.mkv
Формат : Matroska
Версия формата : Version 1
Размер файла : 5,30 Гбайт
Продолжительность : 2 ч. 18 м.
Общий поток : 5489 Кбит/сек
Дата кодирования : UTC 2014-12-18 13:45:55
Программа кодирования : mkvmerge v2.4.1 ('Use Me') built on Dec 5 2008 18:30:05
Библиотека кодирования : libebml v0.7.7 + libmatroska v0.8.1

Видео
Идентификатор : 1
Формат : AVC
Формат/Информация : Advanced Video Codec
Профиль формата : High@L4.1
Параметр CABAC формата : Да
Параметр ReFrames формата : 10 кадров
Идентификатор кодека : V_MPEG4/ISO/AVC
Продолжительность : 2 ч. 18 м.
Битрейт : 3500 Кбит/сек
Ширина : 1024 пикселя
Высота : 424 пикселя
Соотношение сторон : 2,40:1
Режим частоты кадров : Постоянный
Частота кадров : 23,976 кадра/сек
Цветовое пространство : YUV
Субдискретизация насыщенности : 4:2:0
Битовая глубина : 8 бит
Тип развёртки : Прогрессивная
Бит/(Пиксели*Кадры) : 0.336
Размер потока : 3,28 Гбайт (62%)
Заголовок : Матрица: Перезагрузка (2003)
Библиотека кодирования : x264 core 129 r2230 1cffe9f
Настройки программы : cabac=1 / ref=10 / deblock=1:-3:-3 / analyse=0x3:0x133 / me=umh / subme=10 / psy=1 / psy_rd=1.00:0.10 / mixed_ref=1 / me_range=48 / chroma_me=1 / trellis=2 / 8x8dct=1 / cqm=0 / deadzone=21,11 / fast_pskip=0 / chroma_qp_offset=-3 / threads=6 / lookahead_threads=1 / sliced_threads=0 / nr=0 / decimate=1 / interlaced=0 / bluray_compat=0 / constrained_intra=0 / bframes=5 / b_pyramid=2 / b_adapt=2 / b_bias=0 / direct=3 / weightb=1 / open_gop=0 / weightp=2 / keyint=240 / keyint_min=22 / scenecut=40 / intra_refresh=0 / rc_lookahead=40 / rc=2pass / mbtree=1 / bitrate=3500 / ratetol=1.0 / qcomp=0.60 / qpmin=10 / qpmax=51 / qpstep=4 / cplxblur=20.0 / qblur=0.5 / ip_ratio=1.40 / aq=1:1.00
Язык : English

Аудио #1
Идентификатор : 2
Формат : AC-3
Формат/Информация : Audio Coding 3
Расширение режима : CM (complete main)
Параметр Endianness формата : Big
Идентификатор кодека : A_AC3
Продолжительность : 2 ч. 18 м.
Вид битрейта : Постоянный
Битрейт : 384 Кбит/сек
Каналы : 6 каналов
Расположение каналов : Front: L C R, Side: L R, LFE
Частота : 48,0 КГц
Битовая глубина : 16 бит
Метод сжатия : С потерями
Размер потока : 380 Мбайт (7%)
Заголовок : AC3 (Дублированный) Blu-Ray CEE
Язык : Russian

Аудио #2
Идентификатор : 3
Формат : AC-3
Формат/Информация : Audio Coding 3
Расширение режима : CM (complete main)
Параметр Endianness формата : Big
Идентификатор кодека : A_AC3
Продолжительность : 2 ч. 18 м.
Вид битрейта : Постоянный
Битрейт : 384 Кбит/сек
Каналы : 6 каналов
Расположение каналов : Front: L C R, Side: L R, LFE
Частота : 48,0 КГц
Битовая глубина : 16 бит
Метод сжатия : С потерями
Размер потока : 380 Мбайт (7%)
Заголовок : AC3 (Двухголосый) П. Гланц и И. Королёва
Язык : Russian

Аудио #3
Идентификатор : 4
Формат : AC-3
Формат/Информация : Audio Coding 3
Расширение режима : CM (complete main)
Параметр Endianness формата : Big
Идентификатор кодека : A_AC3
Продолжительность : 2 ч. 18 м.
Вид битрейта : Постоянный
Битрейт : 384 Кбит/сек
Каналы : 6 каналов
Расположение каналов : Front: L C R, Side: L R, LFE
Частота : 48,0 КГц
Битовая глубина : 16 бит
Метод сжатия : С потерями
Размер потока : 380 Мбайт (7%)
Заголовок : AC3 (Одноголосый) А. Гаврилов
Язык : Russian

Аудио #4
Идентификатор : 5
Формат : AC-3
Формат/Информация : Audio Coding 3
Расширение режима : CM (complete main)
Параметр Endianness формата : Big
Идентификатор кодека : A_AC3
Продолжительность : 2 ч. 18 м.
Вид битрейта : Постоянный
Битрейт : 384 Кбит/сек
Каналы : 6 каналов
Расположение каналов : Front: L C R, Side: L R, LFE
Частота : 48,0 КГц
Битовая глубина : 16 бит
Метод сжатия : С потерями
Размер потока : 380 Мбайт (7%)
Заголовок : AC3 (Одноголосый) Ю. Живов
Язык : Russian

Аудио #5
Идентификатор : 6
Формат : AC-3
Формат/Информация : Audio Coding 3
Расширение режима : CM (complete main)
Параметр Endianness формата : Big
Идентификатор кодека : A_AC3
Продолжительность : 2 ч. 18 м.
Вид битрейта : Постоянный
Битрейт : 448 Кбит/сек
Каналы : 6 каналов
Расположение каналов : Front: L C R, Side: L R, LFE
Частота : 48,0 КГц
Битовая глубина : 16 бит
Метод сжатия : С потерями
Размер потока : 443 Мбайт (8%)
Заголовок : AC3 (Оригинал)
Язык : English

Текст #1
Идентификатор : 7
Формат : UTF-8
Идентификатор кодека : S_TEXT/UTF8
Идентификатор кодека/Информация : UTF-8 Plain Text
Заголовок : Русские
Язык : Russian

Текст #2
Идентификатор : 8
Формат : UTF-8
Идентификатор кодека : S_TEXT/UTF8
Идентификатор кодека/Информация : UTF-8 Plain Text
Заголовок : Английские
Язык : English

Скриншоты:

Матрица: Революция / The Matrix Revolutions (2003) BDRip [H.264]
« Все, что имеет начало, имеет и конец »

Год выпуска: 2003
Производство: США, Австралия | Warner Bros. Pictures, Village Roadshow Pictures, Silver Pictures, NPV Entertainment
Жанр: фантастика, боевик

Режиссер: Энди Вачовски, Лана Вачовски
Продюсер: Джоэл Силвер, Брюс Берман, Дэвид Форбс
Актеры: Киану Ривз, Лоренс Фишбёрн, Кэрри-Энн Мосс, Хьюго Уивинг, Хэролд Перрино, Джина Торрес, Джада Пинкетт Смит, Моника Беллуччи, Гарри Дж. Ленникс, Мэри Элис, Брюс Спенс, Нэтаниэл Лис, Колин Чоу, Ламбер Вильсон

Описание фильма: Пока армия Машин пытается уничтожить Зион, его жители из последних сил держат оборону. Но удастся ли им предотвратить полное вторжение в город кишащей орды беспощадных машин до того, как Нео соберет все свои силы и положит конец войне?

Перевод: Профессиональный дублированный, профессиональный двухголосый, авторский
Вид субтитров: Вшитые отключаемые
Язык субтитров: Русский, английский

Дата мировой премьеры: 27 октября 2003
Дата российской премьеры: 5 ноября 2003, «Каро-Премьер»
Дата выхода DVD релиза: 6 апреля 2004, «Premier Digital»
Дата выхода Blu-ray релиза: 27 января 2009, «Юниверсал Пикчерс Рус»

Продолжительность: 02:09:16
Возраст 16+: Зрителям, достигшим 16 лет
Рейтинг MPAA R: Лицам до 17 лет обязательно присутствие взрослого

Качество видео: BDRip [H.264]
Видео: MPEG-4 AVC/H.264, 3500 Kbps, 1024 x 424
Аудио 1: Русский AC3 5.1, 384 Kbps, 48.0 KHz (Полное дублирование) Blu-ray CEE
Аудио 2: Русский AC3 5.1, 384 Kbps, 48.0 KHz (Двухголосый закадровый) П. Гланц и И. Королёва
Аудио 3: Русский AC3 5.1, 384 Kbps, 48.0 KHz (Одноголосый закадровый) А. Гаврилов
Аудио 4: Русский AC3 5.1, 384 Kbps, 48.0 KHz (Одноголосый закадровый) Ю. Живов
Аудио 5: Английский AC3 5.1, 448 Kbps, 48.0 KHz (Оригинал)
Общее
Полное имя : Матрица III.mkv
Формат : Matroska
Версия формата : Version 1
Размер файла : 4,96 Гбайт
Продолжительность : 2 ч. 9 м.
Общий поток : 5488 Кбит/сек
Дата кодирования : UTC 2014-12-18 07:20:51
Программа кодирования : mkvmerge v2.4.1 ('Use Me') built on Dec 5 2008 18:30:05
Библиотека кодирования : libebml v0.7.7 + libmatroska v0.8.1

Видео
Идентификатор : 1
Формат : AVC
Формат/Информация : Advanced Video Codec
Профиль формата : High@L4.1
Параметр CABAC формата : Да
Параметр ReFrames формата : 10 кадров
Идентификатор кодека : V_MPEG4/ISO/AVC
Продолжительность : 2 ч. 9 м.
Битрейт : 3500 Кбит/сек
Ширина : 1024 пикселя
Высота : 424 пикселя
Соотношение сторон : 2,40:1
Режим частоты кадров : Постоянный
Частота кадров : 23,976 кадра/сек
Цветовое пространство : YUV
Субдискретизация насыщенности : 4:2:0
Битовая глубина : 8 бит
Тип развёртки : Прогрессивная
Бит/(Пиксели*Кадры) : 0.336
Размер потока : 3,07 Гбайт (62%)
Заголовок : Матрица: Революция (2003)
Библиотека кодирования : x264 core 129 r2230 1cffe9f
Настройки программы : cabac=1 / ref=10 / deblock=1:-3:-3 / analyse=0x3:0x133 / me=umh / subme=10 / psy=1 / psy_rd=1.00:0.10 / mixed_ref=1 / me_range=48 / chroma_me=1 / trellis=2 / 8x8dct=1 / cqm=0 / deadzone=21,11 / fast_pskip=0 / chroma_qp_offset=-3 / threads=6 / lookahead_threads=1 / sliced_threads=0 / nr=0 / decimate=1 / interlaced=0 / bluray_compat=0 / constrained_intra=0 / bframes=5 / b_pyramid=2 / b_adapt=2 / b_bias=0 / direct=3 / weightb=1 / open_gop=0 / weightp=2 / keyint=240 / keyint_min=22 / scenecut=40 / intra_refresh=0 / rc_lookahead=40 / rc=2pass / mbtree=1 / bitrate=3500 / ratetol=1.0 / qcomp=0.60 / qpmin=10 / qpmax=51 / qpstep=4 / cplxblur=20.0 / qblur=0.5 / ip_ratio=1.40 / aq=1:1.00
Язык : English

Аудио #1
Идентификатор : 2
Формат : AC-3
Формат/Информация : Audio Coding 3
Расширение режима : CM (complete main)
Параметр Endianness формата : Big
Идентификатор кодека : A_AC3
Продолжительность : 2 ч. 9 м.
Вид битрейта : Постоянный
Битрейт : 384 Кбит/сек
Каналы : 6 каналов
Расположение каналов : Front: L C R, Side: L R, LFE
Частота : 48,0 КГц
Битовая глубина : 16 бит
Метод сжатия : С потерями
Размер потока : 355 Мбайт (7%)
Заголовок : AC3 (Дублированный) Blu-Ray CEE
Язык : Russian

Аудио #2
Идентификатор : 3
Формат : AC-3
Формат/Информация : Audio Coding 3
Расширение режима : CM (complete main)
Параметр Endianness формата : Big
Идентификатор кодека : A_AC3
Продолжительность : 2 ч. 9 м.
Вид битрейта : Постоянный
Битрейт : 384 Кбит/сек
Каналы : 6 каналов
Расположение каналов : Front: L C R, Side: L R, LFE
Частота : 48,0 КГц
Битовая глубина : 16 бит
Метод сжатия : С потерями
Размер потока : 355 Мбайт (7%)
Заголовок : AC3 (Двухголосый) П. Гланц и И. Королёва
Язык : Russian

Аудио #3
Идентификатор : 4
Формат : AC-3
Формат/Информация : Audio Coding 3
Расширение режима : CM (complete main)
Параметр Endianness формата : Big
Идентификатор кодека : A_AC3
Продолжительность : 2 ч. 9 м.
Вид битрейта : Постоянный
Битрейт : 384 Кбит/сек
Каналы : 6 каналов
Расположение каналов : Front: L C R, Side: L R, LFE
Частота : 48,0 КГц
Битовая глубина : 16 бит
Метод сжатия : С потерями
Размер потока : 355 Мбайт (7%)
Заголовок : AC3 (Одноголосый) А. Гаврилов
Язык : Russian

Аудио #4
Идентификатор : 5
Формат : AC-3
Формат/Информация : Audio Coding 3
Расширение режима : CM (complete main)
Параметр Endianness формата : Big
Идентификатор кодека : A_AC3
Продолжительность : 2 ч. 9 м.
Вид битрейта : Постоянный
Битрейт : 384 Кбит/сек
Каналы : 6 каналов
Расположение каналов : Front: L C R, Side: L R, LFE
Частота : 48,0 КГц
Битовая глубина : 16 бит
Метод сжатия : С потерями
Размер потока : 355 Мбайт (7%)
Заголовок : AC3 (Одноголосый) Ю. Живов
Язык : Russian

Аудио #5
Идентификатор : 6
Формат : AC-3
Формат/Информация : Audio Coding 3
Расширение режима : CM (complete main)
Параметр Endianness формата : Big
Идентификатор кодека : A_AC3
Продолжительность : 2 ч. 9 м.
Вид битрейта : Постоянный
Битрейт : 448 Кбит/сек
Каналы : 6 каналов
Расположение каналов : Front: L C R, Side: L R, LFE
Частота : 48,0 КГц
Битовая глубина : 16 бит
Метод сжатия : С потерями
Размер потока : 414 Мбайт (8%)
Заголовок : AC3 (Оригинал)
Язык : English

Текст #1
Идентификатор : 7
Формат : UTF-8
Идентификатор кодека : S_TEXT/UTF8
Идентификатор кодека/Информация : UTF-8 Plain Text
Заголовок : Русские
Язык : Russian

Текст #2
Идентификатор : 8
Формат : UTF-8
Идентификатор кодека : S_TEXT/UTF8
Идентификатор кодека/Информация : UTF-8 Plain Text
Заголовок : Английские
Язык : English

Скриншоты:
[NNM-Club.me]_Matritsa.torrent
 Торрент: Платиновая раздача  Зарегистрирован
 
Скачать


Примагнититься
 Зарегистрирован:   19 Дек 2014 07:49:59
 Размер:   15.5 GB  (
 Рейтинг:   4.8 (Голосов: 173)
 Поблагодарили:   566
 Проверка:   Оформление проверено модератором 19 Дек 2014 18:49:40
Как cкачать  ·  Как раздать  ·  Правильно оформить  ·  Поднять ратио!  
Blesslex
Стаж: 12 лет 9 мес.
Сообщений: 2056
Раздал: 0
Поблагодарили: 92200
100%
Откуда: Севастополь
russia.gif
Alex1622, спасибо за трилогию. Великолепные фильмы.
Маrilуn Моnrое ®
Стаж: 14 лет 3 мес.
Сообщений: 1457
Ratio: 74.399
Поблагодарили: 224597
100%
Откуда: Южный Урал™
ussr.gif
Всегда пожалуйста. Очень рад, что вам пригодились и понравились мои релизы.
batonchik
RG Releasers
Котоаплоадер 10 PB+
Почетный Куратор Видео
Стаж: 16 лет 1 мес.
Сообщений: 26109
Ratio: 57K
Раздал: 14.983 PB
Поблагодарили: 1439444
100%
Откуда: СССР
ussr.gif
Alex1622 писал(а):
Субтитры: Отсутствуют

Это печально, а ведь они есть и найти их нетрудно! И добавить их в матрёшку дело очень простое.
На будующее советую их всегда добавлять. :подмигивание:

Добавлено спустя 1 минуту 45 секунд:

Были бы сабы, дал бы золото.... а так только серебро.
Маrilуn Моnrое ®
Стаж: 14 лет 3 мес.
Сообщений: 1457
Ratio: 74.399
Поблагодарили: 224597
100%
Откуда: Южный Урал™
ussr.gif
batonchik писал(а): Перейти к сообщению
Alex1622 писал(а):
Субтитры: Отсутствуют

Это печально, а ведь они есть и найти их нетрудно! И добавить их в матрёшку дело очень простое.
На будующее советую их всегда добавлять. :подмигивание:

Добавлено спустя 1 минуту 45 секунд:

Были бы сабы, дал бы золото.... а так только серебро.

Да спору нет. Я понимаю что некоторые с сабами смотрят. Просто если добавлять сабы, то и оригинальную дорогу тоже надо будет добавлять, а места на винте уже не так много :(
zveruika
 
Стаж: 14 лет 4 мес.
Сообщений: 481
Ratio: 21.814
Поблагодарили: 1366
100%
Допущена историческая неточность.....
Все таки, трилогию "Матрица" снимали братья Вачовски: Энди и Ларри!
На всех дисках....значится Ларри Вачовски!!

Только спустя, некоторое время, Ларри, сменил имя на Лана! Два разных человека!
Маrilуn Моnrое ®
Стаж: 14 лет 3 мес.
Сообщений: 1457
Ratio: 74.399
Поблагодарили: 224597
100%
Откуда: Южный Урал™
ussr.gif
zveruika писал(а): Перейти к сообщению
Допущена историческая неточность.....
Все таки, трилогию "Матрица" снимали братья Вачовски: Энди и Ларри!
На всех дисках....значится Ларри Вачовски!!

Только спустя, некоторое время, Ларри, сменил имя на Лана! Два разных человека!

Это не два разных человека, а один! Все верно сперва были два брата Вачовски - Энди и Ларри. Но потом Ларри Вачовски сделал операцию по смене пола, и сменил имя на Лана Вачовски.
batonchik
RG Releasers
Котоаплоадер 10 PB+
Почетный Куратор Видео
Стаж: 16 лет 1 мес.
Сообщений: 26109
Ratio: 57K
Раздал: 14.983 PB
Поблагодарили: 1439444
100%
Откуда: СССР
ussr.gif
Alex1622 писал(а):
Просто если добавлять сабы, то и оригинальную дорогу тоже надо будет добавлять,

Это зачем? Речь идёт о плохослышащих и глухих людях, им звуковая дорожка никакая ненужна. А вот без субтитров они посмотреть фильм не смогут. Так что несколько лишних килобайт (на сабы в *srt) вашим дискам не повредят.
zveruika
 
Стаж: 14 лет 4 мес.
Сообщений: 481
Ratio: 21.814
Поблагодарили: 1366
100%
Alex1622 писал(а): Перейти к сообщению
zveruika писал(а): Перейти к сообщению
Допущена историческая неточность.....
Все таки, трилогию "Матрица" снимали братья Вачовски: Энди и Ларри!
На всех дисках....значится Ларри Вачовски!!

Только спустя, некоторое время, Ларри, сменил имя на Лана! Два разных человека!

Это не два разных человека, а один! Все верно сперва были два брата Вачовски - Энди и Ларри. Но потом Ларри Вачовски сделал операцию по смене пола, и сменил имя на Лана Вачовски.


Я согласен с вами....но снимали БРАТЬЯ, а не БРАТ С СЕСТРОЙ....В следующих фильмах так и будет записано Вачовски - Энди и Лана! Вы явно поторопили события....и оставили не у дел Ларри Вачовски! Это не правильно! Да восторжествует справедливость!
emin107fm
Стаж: 11 лет 9 мес.
Сообщений: 37
Ratio: 1.373
100%
НАРОД ВСТАНЬТЕ НА РАЗДАЧУ.
st.asus
Стаж: 13 лет
Сообщений: 99
Ratio: 3.503
Поблагодарили: 80
100%
nnm-club.gif
Спасибо Друг!
Alex-0306
Стаж: 13 лет 3 мес.
Сообщений: 32
Ratio: 4.889
Раздал: 1.481 TB
Поблагодарили: 1227
100%
russia.gif
Великолепные фильмы, жалко что по настоящему стоящии фильмы выходят довольно редко.
zorgkirill
Стаж: 11 лет 6 мес.
Сообщений: 44
Ratio: 19.142
Поблагодарили: 175
100%
Большое спасибо! Теперь будет что смотреть с планшета в дороге =))
ahoney
Стаж: 11 лет 7 мес.
Сообщений: 12
Ratio: 2.664
100%
Давно смотрел, ничего не понял. Прошло уже немало времени с того момента, и пересмотрев первую часть, я был в восторге, и удовольствием продолжу просмотр)

_________________
BAJIAP
Стаж: 11 лет 2 мес.
Сообщений: 163
Ratio: 21.144
Раздал: 6.674 TB
Поблагодарили: 6287
100%
Откуда: Город Счастья
russia.gif
Спасибо автору ха шикарную трилогию, в отличном качестве.
Показать сообщения:   
Начать новую тему   Ответить на тему    Торрент-трекер NNM-Club -> Коллекции / *логии -> Зарубежное кино (коллекции / *логии) Часовой пояс: GMT + 3
Страницы:  1, 2  След.
Страница 1 из 2