Классический форум-трекер
canvas not supported
Нас вместе: 4 233 343

Четыре встречи с Владимиром Высоцким (1987) DVD9


 
 
RSS
Начать новую тему   Ответить на тему    Торрент-трекер NNM-Club -> Документалистика и Телепередачи -> Посвящение искусству
Автор Сообщение
smpeal ®
Стаж: 11 лет 9 мес.
Сообщений: 62
Ratio: 99.87
Поблагодарили: 7340
100%
ussr.gif
Четыре встречи с Владимиром Высоцким (1987) DVD9
Название: Четыре встречи с Владимиром Высоцким

Производство: Главная редакция кинопрограмм Центрального Телевидения СССР
Режиссер: Майя Добросельская
Автор и ведущий: Эльдар Рязанов
Год выпуска: 1987
Жанр: Документальный

Описание:
Музыкально-публицистический фильм, снятый к 50-летию В.Высоцкого.

Фильм состоит из четырех серий: в первой — о личной жизни Высоцкого, его детстве и юности, вторая — о его работе в театре, в третьей — беседа о ролях в кино, а герои четвертой — говорят о нем как о поэте.



Участники: Владимир Высоцкий, Эльдар Рязанов, Марина Влади, Станислав Говорухин, Всеволод Абдулов, Вадим Туманов, Алла Демидова,Зинаида Славина, Леонид Филатов, Валерий Золотухин, Эдуард Володарский, Вениамин Смехов, Андрей Вознесенский, Александр Митта, Михаил Швейцер, Белла Ахмадулина, Булат Окуджава, Евгений Евтушенко, Роберт Рождественский

Продолжительность: 04:21:04

Видеокодек: MPEG-2
Битрейт видео: ~3709 Kbps
Размер кадра: 720х576
Качество видео: DVD9 (самописный) с TVRip
Аудиокодек: AC3
Битрейт аудио: 256 Kbps, 2 канала
Субтитры и доп. материалы: Отстутствуют
Общее
Полное имя : I:\DVD\4 встречи в Владимиром Высоцким\VIDEO_TS\VTS_01_1.VOB
Формат : MPEG-PS
Размер файла : 977 Мбайт
Продолжительность : 33 м.
Режим общего битрейта : Переменный
Общий поток : 4046 Кбит/сек

Видео
Идентификатор : 224 (0xE0)
Формат : MPEG Video
Версия формата : Version 2
Профиль формата : Main@Main
Параметр BVOP формата : Да
Параметр матрицы формата : По умолчанию
Параметр GOP формата : M=3, N=12
Продолжительность : 33 м.
Вид битрейта : Переменный
Битрейт : 3709 Кбит/сек
Максимальный битрейт : 4000 Кбит/сек
Ширина : 720 пикселей
Высота : 576 пикселей
Соотношение сторон : 4:3
Частота кадров : 25,000 кадров/сек
Стандарт вещания : PAL
Цветовое пространство : YUV
Субдискретизация насыщенности : 4:2:0
Битовая глубина : 8 бит
Тип развёртки : Чересстрочная
Порядок развёртки : Верхнее поле первое
Метод сжатия : С потерями
Бит/(Пиксели*Кадры) : 0.358
Размер потока : 895 Мбайт (92%)
Основные цвета : BT.601 PAL
Характеристики трансфера : BT.470 System B, BT.470 System G
Коэффициенты матрицы : BT.601

Аудио
Идентификатор : 189 (0xBD)-128 (0x80)
Формат : AC-3
Формат/Информация : Audio Coding 3
Расширение режима : CM (complete main)
Параметр Endianness формата : Big
Режим смешивания : DVD-Video
Продолжительность : 33 м.
Вид битрейта : Постоянный
Битрейт : 256 Кбит/сек
Каналы : 2 канала
Расположение каналов : Front: L R
Частота : 48,0 КГц
Битовая глубина : 16 бит
Метод сжатия : С потерями
Размер потока : 61,8 Мбайт (6%)
Title: 4 встречи в Владимиром Высоцким
Size: 7.37 Gb ( 7 730 080,00 KBytes ) - DVD-9
Enabled regions: 1, 2, 3, 4, 5, 6, 7, 8

VTS_01 :
Play Length: 04:21:04
Video: PAL 4:3 (720x576) VBR
Audio:
Not specified, AC3, 2/0 (L,R) ch, 256 kbps, Delay 0 mSec

* Menus Information *

VIDEO_TS Menu
Video:
PAL 4:3 (720x576) VBR
Audio:
Not specified (Dolby AC3, 2 ch)
English Language Unit :
Title Menu

VTS_01 Menu
Video:
NTSC 4:3 (720x480) VBR
Auto Pan&Scan, Auto Letterboxed
English Language Unit :
Root Menu
Скриншоты:


Время раздачи: По выходным с 12 до 24, иногда в будни вечером
[NNM-Club.ru]_Chetyre_vstrechi_s_Vladimirom_Vysockim_DVD9.torrent
 Торрент: Платиновая раздача  Зарегистрирован
 
Скачать


Примагнититься
 Зарегистрирован:   26 Янв 2013 23:33:43
 Размер:   7.37 GB  (
 Рейтинг:   4.7 (Голосов: 23)
 Поблагодарили:   69
 Проверка:   Оформление проверено модератором 28 Янв 2013 06:18:14
Как cкачать  ·  Как раздать  ·  Правильно оформить  ·  Поднять ратио!  
jogr575
Стаж: 12 лет 7 мес.
Сообщений: 32
Ratio: 8.425
100%
ussr.gif
дайте пожалуйста докачать раздача остановилась на 54 %
Pruglo
Стаж: 12 лет 3 мес.
Сообщений: 274
Ratio: 7.995
1.55%
russia.gif
Плис на раздачу
Alias_Divas
 
Стаж: 17 лет 1 мес.
Сообщений: 1094
Ratio: 361.598
Раздал: 302.8 TB
Поблагодарили: 27917
100%
Откуда: окрестности Бетельгейзе
krevedko.png
Зову скачавших!
98,2% скачалось. Вернитесь на минуточку, пожалуйста! :)
Показать сообщения:   
Начать новую тему   Ответить на тему    Торрент-трекер NNM-Club -> Документалистика и Телепередачи -> Посвящение искусству Часовой пояс: GMT + 3
Страница 1 из 1