Классический форум-трекер
canvas not supported
Нас вместе: 4 235 228

Ох уж эта наука! / Чудеса науки / Weird Science (1985) DVD5


 
 
RSS
Начать новую тему   Ответить на тему    Торрент-трекер NNM-Club -> Архив торрентов -> Архив Классики кино и Старых фильмов до 90-х
Автор Сообщение
Alex_Fors ®
Стаж: 13 лет 9 мес.
Сообщений: 386
Ratio: 102.587
Поблагодарили: 19346
100%
portugal.gif
Ох уж эта наука! / Чудеса науки / Weird Science (1985) DVD5
Русское название: Ох уж эта наука!
Оригинальное название: Weird Science
Производство: США
Год выпуска: 1985
Жанр: Фэнтези, Мелодрама, Комедия

Описание фильма:
Вариант легенды о Франкештейне в этой вызывающей комедии. Наивный вундеркинд и его друг создают «идеальную женщину». Их создание — прекрасная женщина помогает им пройти через все испытания юности.

Режиссер: Джон Хьюз
Актеры: Энтони Майкл Холл, Келли ЛеБрок, Илан Митчелл-Смит, Билл Пэкстон, Сюзанн Снайдер, Джуди Аронсон, Роберт Дауни мл., Роберт Раслер, Вернон Уэллс, Бритт Лич ...

Продолжительность: 01:29:39
Перевод: Многоголосый закадровый
Язык субтитров: английский, испанский, французский, немецкий, итальянский, арабский, финский, греческий, иврит, венгерский, норвежский, польский, хорватский, чешский, датский, нидерландский, португальский, шведский, турецкий, исландский
Вид субтитров: Вшитые



Дата мировой премьеры: 2 августа 1985

Видеокодек: MPEG-2
Битрейт видео: ~5005 kb/s
Размер кадра: 720x576@1024x576 (PAL 16:9) VBR Auto Letterboxed
Качество видео: DVD5
Аудио: (Dolby AC3, 6 ch) ~448 kb/s |Русский, многоголосый закадровый|
Аудио: (Dolby AC3, 2 ch) ~384 kb/s |Русский, одноголосый закадровый (А.Гаврилов)|
СЭМПЛ
Дополнительные материалы: Трейлер
Title: Ох уж эта наука!1985.DVD5
Size: 4.35 Gb ( 4 565 848,00 KBytes ) - DVD-5
Enabled regions: 1, 2, 3, 4, 5, 6, 7, 8

VTS_01 :
Play Length: 00:00:00
Video: PAL 16:9 (720x576) VBR, Auto Letterboxed

VTS_02 :
Play Length: 01:29:39
Video: PAL 16:9 (720x576) VBR, Auto Letterboxed
Audio:
Russian (Dolby AC3, 6 ch)
Russian (Dolby AC3, 2 ch)
Subtitles:
English
Francais
Deutsch
Italiano
Espanol
Arabic
Suomi
Greek
Hebrew
Magyar
Norsk
Polish
Hrvatski
Czech(Ceske)
Dansk
Nederlands
Portugues
Svenska
Turkish
Islenska

VTS_03 :
Play Length: 00:02:36
Video: PAL 4:3 (720x576) VBR
Audio:
English (Dolby AC3, 2 ch)

VTS_04 :
Play Length: 00:00:01
Video: PAL 4:3 (720x576) VBR

VTS_05 :
Play Length: 00:00:00
Video: PAL 16:9 (720x576) VBR, Auto Letterboxed

* Menus Information *

VIDEO_TS Menu
Video:
NTSC 4:3 (720x480) VBR
Auto Pan&Scan, Auto Letterboxed
English Language Unit :
Title Menu

VTS_01 Menu
Video:
PAL 16:9 (720x576) VBR
Auto Letterboxed
Audio:
Not specified (Dolby AC3, 2 ch)
English Language Unit :
Root Menu

VTS_02 Menu
Video:
PAL 16:9 (720x576) VBR
Auto Pan&Scan
Audio:
Not specified (Dolby AC3, 2 ch)
English Language Unit :
Root Menu

VTS_03 Menu
Video:
PAL 4:3 (720x576) VBR
English Language Unit :
Root Menu

VTS_04 Menu
Video:
PAL 4:3 (720x576) VBR
English Language Unit :
Root Menu

VTS_05 Menu
Video:
PAL 16:9 (720x576) VBR
Auto Letterboxed
Audio:
Not specified (Dolby AC3, 2 ch)
English Language Unit :
Root Menu
Формат : MPEG-PS
Размер файла : 1024 Мбайт
Продолжительность : 24 м.
Общий поток : 5955 Кбит/сек

Видео
Идентификатор : 224 (0xE0)
Формат : MPEG Video
Версия формата : Version 2
Профиль формата : Main@Main
Параметр BVOP формата : Да
Параметр матрицы формата : Выборочная
Параметр GOP формата : M=3, N=12
Продолжительность : 24 м.
Вид битрейта : Переменный
Битрейт : 5005 Кбит/сек
Максимальный битрейт : 9800 Кбит/сек
Ширина : 720 пикселей
Высота : 576 пикселей
Соотношение сторон : 16:9
Частота кадров : 25,000 кадров/сек
Стандарт вещания : PAL
Цветовое пространство : YUV
Субдискретизация насыщенности : 4:2:0
Битовая глубина : 8 бит
Тип развёртки : Чересстрочная
Порядок развёртки : Верхнее поле первое
Метод сжатия : С потерями
Бит/(Пиксели*Кадры) : 0.483
Размер потока : 861 Мбайт (84%)

Аудио #1
Идентификатор : 189 (0xBD)-130 (0x82)
Формат : AC-3
Формат/Информация : Audio Coding 3
Расширение режима : CM (complete main)
Режим смешивания : DVD-Video
Продолжительность : 24 м.
Вид битрейта : Постоянный
Битрейт : 448 Кбит/сек
Каналы : 6 каналов
Расположение каналов : Front: L C R, Side: L R, LFE
Частота : 48,0 КГц
Битовая глубина : 16 бит
Метод сжатия : С потерями
Задержка видео : -72 мс.
Размер потока : 77,0 Мбайт (8%)

Аудио #2
Идентификатор : 189 (0xBD)-131 (0x83)
Формат : AC-3
Формат/Информация : Audio Coding 3
Расширение режима : CM (complete main)
Режим смешивания : DVD-Video
Продолжительность : 24 м.
Вид битрейта : Постоянный
Битрейт : 384 Кбит/сек
Каналы : 2 канала
Расположение каналов : Front: L R
Частота : 48,0 КГц
Битовая глубина : 16 бит
Метод сжатия : С потерями
Задержка видео : -104 мс.
Размер потока : 66,0 Мбайт (6%)

Текст #1
Идентификатор : 189 (0xBD)-32 (0x20)
Формат : RLE
Формат/Информация : Run-length encoding
Режим смешивания : DVD-Video
Продолжительность : 23 м.
Задержка видео : 3 с. 960 мс.

Текст #2
Идентификатор : 189 (0xBD)-33 (0x21)
Формат : RLE
Формат/Информация : Run-length encoding
Режим смешивания : DVD-Video
Продолжительность : 23 м.
Задержка видео : 3 с. 960 мс.

Текст #3
Идентификатор : 189 (0xBD)-34 (0x22)
Формат : RLE
Формат/Информация : Run-length encoding
Режим смешивания : DVD-Video
Продолжительность : 23 м.
Задержка видео : 3 с. 960 мс.

Текст #4
Идентификатор : 189 (0xBD)-35 (0x23)
Формат : RLE
Формат/Информация : Run-length encoding
Режим смешивания : DVD-Video
Продолжительность : 23 м.
Задержка видео : 3 с. 960 мс.

Текст #5
Идентификатор : 189 (0xBD)-36 (0x24)
Формат : RLE
Формат/Информация : Run-length encoding
Режим смешивания : DVD-Video
Продолжительность : 23 м.
Задержка видео : 3 с. 960 мс.

Текст #6
Идентификатор : 189 (0xBD)-37 (0x25)
Формат : RLE
Формат/Информация : Run-length encoding
Режим смешивания : DVD-Video
Продолжительность : 23 м.
Задержка видео : 3 с. 960 мс.

Текст #7
Идентификатор : 189 (0xBD)-38 (0x26)
Формат : RLE
Формат/Информация : Run-length encoding
Режим смешивания : DVD-Video
Продолжительность : 23 м.
Задержка видео : 3 с. 960 мс.

Текст #8
Идентификатор : 189 (0xBD)-39 (0x27)
Формат : RLE
Формат/Информация : Run-length encoding
Режим смешивания : DVD-Video
Продолжительность : 23 м.
Задержка видео : 3 с. 960 мс.

Текст #9
Идентификатор : 189 (0xBD)-40 (0x28)
Формат : RLE
Формат/Информация : Run-length encoding
Режим смешивания : DVD-Video
Продолжительность : 23 м.
Задержка видео : 3 с. 960 мс.

Текст #10
Идентификатор : 189 (0xBD)-41 (0x29)
Формат : RLE
Формат/Информация : Run-length encoding
Режим смешивания : DVD-Video
Продолжительность : 23 м.
Задержка видео : 3 с. 960 мс.

Текст #11
Идентификатор : 189 (0xBD)-42 (0x2A)
Формат : RLE
Формат/Информация : Run-length encoding
Режим смешивания : DVD-Video
Продолжительность : 23 м.
Задержка видео : 3 с. 960 мс.

Текст #12
Идентификатор : 189 (0xBD)-43 (0x2B)
Формат : RLE
Формат/Информация : Run-length encoding
Режим смешивания : DVD-Video
Продолжительность : 23 м.
Задержка видео : 3 с. 960 мс.

Текст #13
Идентификатор : 189 (0xBD)-44 (0x2C)
Формат : RLE
Формат/Информация : Run-length encoding
Режим смешивания : DVD-Video
Продолжительность : 23 м.
Задержка видео : 3 с. 960 мс.

Текст #14
Идентификатор : 189 (0xBD)-45 (0x2D)
Формат : RLE
Формат/Информация : Run-length encoding
Режим смешивания : DVD-Video
Продолжительность : 23 м.
Задержка видео : 3 с. 960 мс.

Меню
Скриншоты:


Время раздачи: 15:00-20:00
[NNM-Club.ru]_Oh uzh yeta nauka!1985.DVD5.torrent
 Торрент: Платиновая раздача  Зарегистрирован
 
Скачать


 Зарегистрирован:   30 Янв 2013 19:35:05
 Размер:   4.35 GB  (
 Рейтинг:   4.8 (Голосов: 28)
 Поблагодарили:   72
 Проверка:   Оформление проверено модератором 31 Янв 2013 08:41:27
Как cкачать  ·  Как раздать  ·  Правильно оформить  ·  Поднять ратио!  
Санек ru
Стаж: 15 лет
Сообщений: 523
Ratio: 13.709
Поблагодарили: 27606
100%
russia.gif
дааа..история..ещё переписывал с видеокассеты на видеокассету себе...кстати есть у меня этот фильм ..могу посмотреть на видике у меня их два.. :лол:

Добавлено спустя 8 минут 31 секунду:

поддержу раздачу...

_________________
...кто сам просился на ночлег скорей поймет другого...
---------------------------------
Топик был перенесен из форума Старые Зарубежные Фильмы (DVD) в форум Архив Классики кино и Старых фильмов до 90-х

Причина переноса: Длительное отсутствие сида на протяжении более 6 месяцев.

Исправил релиз - напиши ЛС Alone_Kedr, дав ссылку на релиз.
Если нет ответа 24 часа - нажми на кнопку "Обратить внимание модераторов".
Показать сообщения:   
Начать новую тему   Ответить на тему    Торрент-трекер NNM-Club -> Архив торрентов -> Архив Классики кино и Старых фильмов до 90-х Часовой пояс: GMT + 3
Страница 1 из 1