Классический форум-трекер
canvas not supported
Нас вместе: 4 232 024

Семь психопатов / Seven Psychopaths (2012) [H.264] BDRip


 
 
RSS
Начать новую тему   Ответить на тему    Торрент-трекер NNM-Club -> Зарубежное кино -> Зарубежные Фильмы (SD)
Автор Сообщение
art-61 ®
Стаж: 12 лет 10 мес.
Сообщений: 1094
Ratio: 119.617
Поблагодарили: 143398
100%
Откуда: Санкт-Петербург
russia.gif
Семь психопатов / Seven Psychopaths (2012) BDRip
Русское название: Семь психопатов
Оригинальное название: Seven Psychopaths
Год выпуска: 2012
Производство: Великобритания / Blueprint Pictures, British Film Institute (BFI), Film4
Жанр: Комедия, криминал

Перевод: Авторский одноголосый, закадровый (Дмитрий Пучков - «Goblin»)
Субтитры: Вшитые отключаемые
Язык субтитров: Русский, английский (форсированные, полные, SDH)

Дата мировой премьеры: 7 сентября 2012
Дата российской премьеры: 18 октября 2012, «Каравелла DDC»
Дата выхода DVD релиза: 6 февраля 2013, «Кармен Видео»

Режиссер: Мартин МакДона
Продюсер: Грэхэм Броадбент, Питер Чернин, Мартин МакДона
Актеры: Колин Фаррелл, Сэм Рокуэлл, Кристофер Уокен, Эбби Корниш, Том Уэйтс, Вуди Харрельсон, Ольга Куриленко, Желько Иванек, Майкл Питт, Майкл Стулбарг

Описание фильма:
Непутевый писатель потерял вдохновение и никак не может справиться с новым сценарием. Волей случая он оказывается втянутым в похищение собаки, затеянное его эксцентричными дружками. Выясняется, что украденное животное — любимый пёс главного местного гангстера, которому ничего не стоит в два счета вычислить и уничтожить оболтусов.



Рейтинг R - Детям до 17 лет обязательно присутствие родителей
Возраст 18+ - Зрителям, достигшим 18 лет

Продолжительность: 01:50:23
Качество видео: BDRip

Видеокодек: MPEG-4 AVC/H.264
Битрейт видео: 2061 Кбит/с
Размер кадра: 1024x426
Аудио#1: AC3, 6 ch, 448 Кбит/с -(Русский - одноголосый закадровый)
Аудио#2: AC3, 6 ch, 384 Кбит/с - (Английский - оригинал)
Общее
Уникальный идентификатор : 207231300187625209725151075838147533705 (0x9BE74BF0E5F02E0E9BFA931CFAC19B89)
Полное имя : E:\Sem'.Psihopatov.2012.Goblin.BDRip.x264.mkv
Формат : Matroska
Версия формата : Version 2
Размер файла : 2,23 Гбайт
Продолжительность : 1 ч. 50 м.
Общий поток : 2893 Кбит/сек

Дата кодирования : UTC 2013-02-01 17:44:42
Программа кодирования : mkvmerge v5.7.0 ('The Whirlwind') built on Jul 8 2012 20:08:51
Библиотека кодирования : libebml v1.2.3 + libmatroska v1.3.0

Видео
Идентификатор : 1
Формат : AVC
Формат/Информация : Advanced Video Codec
Профиль формата : High@L4.1
Параметр CABAC формата : Да
Параметр ReFrames формата : 9 кадров
Идентификатор кодека : V_MPEG4/ISO/AVC
Продолжительность : 1 ч. 50 м.
Битрейт : 2061 Кбит/сек
Ширина : 1024 пикселя
Высота : 426 пикселей
Соотношение сторон : 2,40:1
Соотношение сторон в оригинале : 2,40:1
Режим частоты кадров : Постоянный
Частота кадров : 23,976 кадра/сек
Цветовое пространство : YUV
Субдискретизация насыщенности : 4:2:0
Битовая глубина : 8 бит
Тип развёртки : Прогрессивная
Бит/(Пиксели*Кадры) : 0.197
Размер потока : 1,54 Гбайт (69%)
Заголовок : Seven Psychopaths
Библиотека кодирования : x264 core 128 r2216M 198a7ea
Настройки программы : cabac=1 / ref=10 / deblock=1:-3:-2 / analyse=0x3:0x133 / me=umh / subme=9 / psy=1 / psy_rd=1.05:0.00 / mixed_ref=1 / me_range=32 / chroma_me=1 / trellis=2 / 8x8dct=1 / cqm=0 / deadzone=21,11 / fast_pskip=0 / chroma_qp_offset=-2 / threads=4 / lookahead_threads=1 / sliced_threads=0 / nr=0 / decimate=1 / interlaced=0 / bluray_compat=0 / constrained_intra=0 / bframes=11 / b_pyramid=1 / b_adapt=2 / b_bias=0 / direct=3 / weightb=1 / open_gop=0 / weightp=2 / keyint=240 / keyint_min=23 / scenecut=40 / intra_refresh=0 / rc_lookahead=200 / rc=2pass / mbtree=1 / bitrate=2061 / ratetol=1.0 / qcomp=0.70 / qpmin=0 / qpmax=65 / qpstep=4 / cplxblur=20.0 / qblur=0.5 / vbv_maxrate=20000 / vbv_bufsize=25000 / nal_hrd=none / ip_ratio=1.35 / aq=1:0.85
Язык : English
Default : Да
Forced : Нет

Аудио #1
Идентификатор : 2
Формат : AC-3
Формат/Информация : Audio Coding 3
Расширение режима : CM (complete main)
Параметр Endianness формата : Big
Идентификатор кодека : A_AC3
Продолжительность : 1 ч. 50 м.
Вид битрейта : Постоянный
Битрейт : 448 Кбит/сек
Каналы : 6 каналов
Расположение каналов : Front: L C R, Side: L R, LFE
Частота : 48,0 КГц
Битовая глубина : 16 бит
Метод сжатия : С потерями
Размер потока : 354 Мбайт (15%)
Заголовок : Дмитрий Пучков (Гоблин) | DD 5.1 @ 448 kbps
Язык : Russian
Default : Да
Forced : Да

Аудио #2
Идентификатор : 3
Формат : AC-3
Формат/Информация : Audio Coding 3
Расширение режима : CM (complete main)
Параметр Endianness формата : Big
Идентификатор кодека : A_AC3
Продолжительность : 1 ч. 50 м.
Вид битрейта : Постоянный
Битрейт : 384 Кбит/сек
Каналы : 6 каналов
Расположение каналов : Front: L C R, Side: L R, LFE
Частота : 48,0 КГц
Битовая глубина : 16 бит
Метод сжатия : С потерями
Задержка видео : 27 мс.
Размер потока : 303 Мбайт (13%)
Заголовок : Original | DD 5.1 @ 384 kbps
Язык : English
Default : Нет
Forced : Нет

Текст #1
Идентификатор : 4
Формат : UTF-8
Идентификатор кодека : S_TEXT/UTF8
Идентификатор кодека/Информация : UTF-8 Plain Text
Язык : Russian
Default : Нет
Forced : Нет

Текст #2
Идентификатор : 5
Формат : UTF-8
Идентификатор кодека : S_TEXT/UTF8
Идентификатор кодека/Информация : UTF-8 Plain Text
Заголовок : Forced
Язык : English
Default : Нет
Forced : Нет

Текст #3
Идентификатор : 6
Формат : UTF-8
Идентификатор кодека : S_TEXT/UTF8
Идентификатор кодека/Информация : UTF-8 Plain Text
Язык : English
Default : Нет
Forced : Нет

Текст #4
Идентификатор : 7
Формат : UTF-8
Идентификатор кодека : S_TEXT/UTF8
Идентификатор кодека/Информация : UTF-8 Plain Text
Язык : English
Default : Нет
Forced : Нет

Меню
00:00:00.000 : en:00:00:00.000
00:06:53.038 : en:00:06:53.038
00:14:26.115 : en:00:14:26.115
00:20:37.987 : en:00:20:37.987
00:27:05.916 : en:00:27:05.916
00:33:35.722 : en:00:33:35.722
00:38:01.112 : en:00:38:01.112
00:45:08.205 : en:00:45:08.205
00:52:11.295 : en:00:52:11.295
00:59:04.207 : en:00:59:04.207
01:09:26.496 : en:01:09:26.496
01:17:18.133 : en:01:17:18.133
01:20:54.641 : en:01:20:54.641
01:26:29.393 : en:01:26:29.393
01:35:36.814 : en:01:35:36.814
01:41:13.192 : en:01:41:13.192
Скриншоты:


Автор рипа:
Время раздачи: 24/7
[NNM-Club.ru]_Sem'.Psihopatov.2012.Goblin.BDRip.x264.mkv.torrent
 Торрент: Платиновая раздача  Зарегистрирован
 
Скачать


Примагнититься
 Зарегистрирован:   01 Фев 2013 22:28:54
 Размер:   2.23 GB  (
 Рейтинг:   4.6 (Голосов: 105)
 Поблагодарили:   472
 Проверка:   Оформление проверено модератором 02 Фев 2013 11:21:01
Как cкачать  ·  Как раздать  ·  Правильно оформить  ·  Поднять ратио!  
AIres
Стаж: 12 лет 3 мес.
Сообщений: 2
Ratio: 18.715
2.15%
Достойный перевод... Забрал в коллекцию... :подмигивание:
Pioneer2712
Стаж: 12 лет 5 мес.
Сообщений: 166
Ratio: 10.918
100%
ukraine.gif
за гоблина респект,вот это действительно правильный перевод
catterpillar82
Стаж: 11 лет 10 мес.
Сообщений: 1304
Ratio: 98.832
Раздал: 28.76 TB
100%
ukraine.gif
Может Пучков его и переводит, но фильм редкий бред.
Боевой_робот
Стаж: 13 лет 5 мес.
Сообщений: 1
Ratio: 3.038
98.25%
Откуда: Varadero
cuba.gif
фильм - бомба! такой тонкий сценарий! кайф!))) Смотреть только в переводе Гоблина. Здесь он, как и в "Большом куше" уместен на 100%.
nkt#1
Стаж: 13 лет 3 мес.
Сообщений: 66
Ratio: 9.942
100%
спасибо!
zav67
Стаж: 17 лет 2 мес.
Сообщений: 252
Ratio: 7.364
100%
Откуда: Москва
russia.gif
Без такого классного перевода фильм потерял бы очень много! а так великолепно!

_________________
Поколение дворников и сторожей
Показать сообщения:   
Начать новую тему   Ответить на тему    Торрент-трекер NNM-Club -> Зарубежное кино -> Зарубежные Фильмы (SD) Часовой пояс: GMT + 3
Страница 1 из 1