Классический форум-трекер
canvas not supported
Нас вместе: 4 232 305

30 ночей паранормального явления с одержимой девушкой с татуировкой дракона/ 30 Nights of Paranormal Activity with the Devil Inside the Girl with the Dragon Tattoo (2012) [H.264] WEB-DLRip


 
 
RSS
Начать новую тему   Ответить на тему    Торрент-трекер NNM-Club -> Зарубежное кино -> Зарубежные Фильмы (SD)
Автор Сообщение
art-61 ®
Стаж: 12 лет 10 мес.
Сообщений: 1094
Ratio: 119.581
Поблагодарили: 143433
100%
Откуда: Санкт-Петербург
russia.gif
30 ночей паранормального явления с одержимой девушкой с татуировкой дракона/ 30 Nights of Paranormal Activity with the Devil Inside the Girl with the Dragon Tattoo (2012) WEB-DLRip
Русское название: 30 ночей паранормального явления с одержимой девушкой
Оригинальное название: 30 Nights of Paranormal Activity with the Devil Inside the Girl with the Dragon Tattoo
Год выпуска: 2013
Производство: США / Silver Nitrate Films, Silver Nitrate Pictures
Жанр: Комедия, Пародия

Перевод: Профессиональный многоголосый [лицензия]

Дата мировой премьеры: 15 января 2013

Режиссер: Крэйг Мосс
Продюсер: Джим Басфилд, Бен Фейнголд, Эш Р. Шах
Актеры: Кэтрин Фиоре, Флип Шульц, Артуро Дель Пуэрто, Дэнни Вудберн, Френч Стюарт, Питер Гилрой, Тайлер Филлипс, Стив Гликман, Ребекка Энн Джонсон

Описание фильма:
Когда молодая семья, которая никак не может прекратить снимать себя на камеру, переезжает в дом, который оказывается населенным призраками, они встречаются с множеством жутких персонажей — среди них президент охотник на вампиров, который хочет «освободить» их дочь с татуировкой дракона. С помощью энергичных «братьев-призраков» семья пытается разгадать тайну дома с привидениями.



Продолжительность: 01:20:09
Качество видео: WEB-DLRip

Видеокодек: MPEG-4 AVC/H.264
Битрейт видео: 4545 Кбит/с
Размер кадра: 1918x1036
Аудиокодек: AC3, 6 ch
Битрейт аудио: 384 Кбит/с
Общее
Уникальный идентификатор : 170916342471104688156931448369462663829 (0x80954A4A389B6F8CA8C5EC8D73605A95)
Полное имя : E:\Cinema\30 ночей паранормального явления и татуировка дракона .mkv
Формат : Matroska
Версия формата : Version 2
Размер файла : 2,82 Гбайт
Продолжительность : 1 ч. 20 м.
Общий поток : 5029 Кбит/сек
Дата кодирования : UTC 2013-02-02 19:14:48
Программа кодирования : mkvmerge v5.7.0 ('The Whirlwind') built on Jul 8 2012 20:08:51
Библиотека кодирования : libebml v1.2.3 + libmatroska v1.3.0

Видео
Идентификатор : 1
Формат : AVC
Формат/Информация : Advanced Video Codec
Профиль формата : High@L4.0
Параметр CABAC формата : Да
Параметр ReFrames формата : 4 кадра
Идентификатор кодека : V_MPEG4/ISO/AVC
Продолжительность : 1 ч. 20 м.
Битрейт : 4545 Кбит/сек
Ширина : 1918 пикселей
Высота : 1036 пикселей
Соотношение сторон : 1,85:1
Режим частоты кадров : Постоянный
Частота кадров : 23,976 кадра/сек
Цветовое пространство : YUV
Субдискретизация насыщенности : 4:2:0
Битовая глубина : 8 бит
Тип развёртки : Прогрессивная
Бит/(Пиксели*Кадры) : 0.095
Размер потока : 2,54 Гбайт (90%)

Язык : English
Default : Да
Forced : Нет
Основные цвета : BT.709
Характеристики трансфера : BT.709
Коэффициенты матрицы : BT.709

Аудио
Идентификатор : 3
Формат : AC-3
Формат/Информация : Audio Coding 3
Расширение режима : CM (complete main)
Параметр Endianness формата : Big
Идентификатор кодека : A_AC3
Продолжительность : 1 ч. 20 м.
Вид битрейта : Постоянный
Битрейт : 384 Кбит/сек
Каналы : 6 каналов
Расположение каналов : Front: L C R, Side: L R, LFE
Частота : 48,0 КГц
Битовая глубина : 16 бит
Метод сжатия : С потерями
Размер потока : 220 Мбайт (8%)
Default : Да
Forced : Нет

Текст
Идентификатор : 2
Формат : UTF-8
Идентификатор кодека : S_TEXT/UTF8
Идентификатор кодека/Информация : UTF-8 Plain Text
Язык : English
Default : Нет
Forced : Нет

Меню
00:00:00.000 : en:Chapter 01
00:03:15.000 : en:Chapter 02
00:07:07.000 : en:Chapter 03
00:11:48.000 : en:Chapter 04
00:16:37.000 : en:Chapter 05
00:21:16.000 : en:Chapter 06
00:24:26.000 : en:Chapter 07
00:28:49.000 : en:Chapter 08
00:33:32.000 : en:Chapter 09
00:36:25.000 : en:Chapter 10
00:40:07.000 : en:Chapter 11
00:44:06.000 : en:Chapter 12
00:47:12.000 : en:Chapter 13
00:52:35.000 : en:Chapter 14
00:54:11.000 : en:Chapter 15
00:59:36.000 : en:Chapter 16
01:05:16.000 : en:Chapter 17
01:07:49.000 : en:Chapter 18
01:10:48.000 : en:Chapter 19
01:14:35.000 : en:Chapter 20
Скриншоты:


Время раздачи: 24/7, по возможности.
[NNM-Club.ru]_30 nochey paranormal'nogo yavleniya i tatuirovka drakona (2012).mkv.torrent
 Торрент: Платиновая раздача  Зарегистрирован
 
Скачать


Примагнититься
 Зарегистрирован:   05 Фев 2013 01:25:08
 Размер:   2.82 GB  (
 Рейтинг:   4.3 (Голосов: 44)
 Поблагодарили:   122
 Проверка:   Оформление проверено модератором 05 Фев 2013 01:51:23
Как cкачать  ·  Как раздать  ·  Правильно оформить  ·  Поднять ратио!  
pess1myst
Стаж: 14 лет 6 мес.
Сообщений: 114
Ratio: 6.808
Раздал: 21.48 TB
22.85%
ussr.gif
Во время просмотра раздражают постоянные хрипы во время включения русской дорожки.
Krovus
Стаж: 11 лет 4 мес.
Сообщений: 149
Ratio: 2
Раздал: 1.019 TB
100%
ussr.gif
Не люблю любительство.
Показать сообщения:   
Начать новую тему   Ответить на тему    Торрент-трекер NNM-Club -> Зарубежное кино -> Зарубежные Фильмы (SD) Часовой пояс: GMT + 3
Страница 1 из 1