Классический форум-трекер
canvas not supported
Нас вместе: 4 232 025

Анна Каренина / Anna Karenina (2012) BDRip


 
 
RSS
Начать новую тему   Ответить на тему    Торрент-трекер NNM-Club -> Зарубежное кино -> Зарубежные Фильмы (SD)
Автор Сообщение
art-61 ®
Стаж: 12 лет 10 мес.
Сообщений: 1094
Ratio: 119.617
Поблагодарили: 143398
100%
Откуда: Санкт-Петербург
russia.gif
Анна Каренина / Anna Karenina (2012) BDRip
Русское название: Анна Каренина
Оригинальное название: Anna Karenina
Год выпуска: 2012
Производство: Великобритания / Working Title Films
Жанр: Драма, мелодрама

Перевод: Дублированный
Субтитры: Отсутствуют

Дата мировой премьеры: 7 сентября 2012
Дата российской премьеры: 10 января 2013, «UPI»
Дата выхода DVD релиза: 7 марта 2013, «Двадцатый Век Фокс СНГ»

Режиссер: Джо Райт
Продюсер: Тим Беван, Пол Уэбстер, Лиза Чейсин
Актеры: Кира Найтли, Аарон Джонсон (III), Джуд Лоу, Алисия Викандер, Келли МакДональд, Мэттью МакФадьен, Оливия Уильямс, Мишель Докери, Домналл Глисон, Эмили Уотсон, Рут Уилсон, Александра Роач, Рафаэль Персонна, Эрос Влахос, Кеннет Коллар, Холли Грэйнджер, Ширли Хендерсон, Билл Скарсгард, Люк Ньюберри, Баффи Дэвис

Описание фильма:
Встречая приехавшую из Петербурга мать, молодой блистательный офицер граф Вронский знакомится с женой влиятельного петербургского чиновника Анной Карениной. Огонь страсти вспыхивает мгновенно, но их любовь шокирует высшее общество. В мире, где правят предрассудки и стереотипы, ей придётся сделать поистине непростой выбор между семьёй и всепоглощающей страстью…



Продолжительность: 02:09:32
Качество видео: BDRip

Видеокодек: XviD
Битрейт видео: 1871 Кбит/с
Размер кадра: 720x304
Аудиокодек: AC3 5.1
Битрейт аудио: 384 Кбит/с
Общее
Полное имя : E:\Anna.Karenina.2012.D.BDRip
Формат : AVI
Формат/Информация : Audio Video Interleave
Профиль формата : OpenDML
Размер файла : 2,05 Гбайт
Продолжительность : 2 ч. 9 м.
Общий поток : 2267 Кбит/сек
Название фильма : Anna.Karenina.2012.D.BDRip
Жанр : Drama
Программа кодирования : VirtualDubMod 1.5.10.2 (build 2540/release)
Формат оригинала/Имя : Movie

Видео
Идентификатор : 0
Формат : MPEG-4 Visual
Профиль формата : Advanced Simple@L5
Параметр BVOP формата : 2
Параметр QPel формата : Нет
Параметр GMC формата : Без точки перехода
Параметр матрицы формата : Выборочная
Идентификатор кодека : XVID
Идентификатор кодека/Подсказка : XviD
Продолжительность : 2 ч. 9 м.
Битрейт : 1871 Кбит/сек
Ширина : 720 пикселей
Высота : 304 пикселя
Соотношение сторон : 2,35:1
Частота кадров : 23,976 кадра/сек
Цветовое пространство : YUV
Субдискретизация насыщенности : 4:2:0
Битовая глубина : 8 бит
Тип развёртки : Прогрессивная
Метод сжатия : С потерями
Бит/(Пиксели*Кадры) : 0.357
Размер потока : 1,69 Гбайт (83%)
Библиотека кодирования : XviD 64

Аудио
Идентификатор : 1
Формат : AC-3
Формат/Информация : Audio Coding 3
Расширение режима : CM (complete main)
Параметр Endianness формата : Big
Идентификатор кодека : 2000
Продолжительность : 2 ч. 9 м.
Вид битрейта : Постоянный
Битрейт : 384 Кбит/сек
Каналы : 6 каналов
Расположение каналов : Front: L C R, Side: L R, LFE
Частота : 48,0 КГц
Битовая глубина : 16 бит
Метод сжатия : С потерями
Размер потока : 356 Мбайт (17%)
Выравнивание : Разделение по промежуткам
Продолжительность промежутка : 42 мс. (1,00 видеокадр)
Время предзагрузки промежутка : 500 мс.
Скриншоты:


Время раздачи: 24/7
[NNM-Club.ru]_Anna.Karenina.2012.D.BDRip.avi.torrent
 Торрент: Платиновая раздача  Зарегистрирован
 
Скачать


Примагнититься
 Зарегистрирован:   05 Фев 2013 15:14:32
 Размер:   2.05 GB  (
 Рейтинг:   4.5 (Голосов: 150)
 Поблагодарили:   624
 Проверка:   Оформление проверено модератором 05 Фев 2013 19:41:23
Как cкачать  ·  Как раздать  ·  Правильно оформить  ·  Поднять ратио!  
xorg.conf
Стаж: 13 лет 10 мес.
Сообщений: 29
Ratio: 0.975
Поблагодарили: 134
10.29%
poland.gif
в чем отличие от Анна Каренина / Anna Karenina (2012) [H.264] DVDRip [Line]
?
veber_06
Стаж: 13 лет
Сообщений: 223
Ratio: 8.829
3.76%
ukraine.gif
Дякую,сейчас заценим Киру найтли.
Скорость 7.3 метра,нормально.

Добавлено спустя 3 минуты 52 секунды:

Скачал за 5.21 секунду на средней 6.2 Метра
Berendey
Стаж: 17 лет 6 мес.
Сообщений: 95
Ratio: 1.677
Поблагодарили: 197
100%
russia.gif
А как правильно Кира Найтли или Кейра Найтли?
art-61 ®
Стаж: 12 лет 10 мес.
Сообщений: 1094
Ratio: 119.617
Поблагодарили: 143398
100%
Откуда: Санкт-Петербург
russia.gif
Berendey писал(а): Перейти к сообщению
А как правильно Кира Найтли или Кейра Найтли?


Кира Найтли

_________________
В этом безумном мире возможно всё!
AgentOrange
Стаж: 14 лет 11 мес.
Сообщений: 726
Ratio: 13.441
Поблагодарили: 2257
100%
nnm-club.gif
Вопрос снят. :)
MonsterPro
Стаж: 11 лет 5 мес.
Сообщений: 142
Ratio: 2.322
Поблагодарили: 1877
100%
russia.gif
Думаю что фильм будет без каких либо искажений, только книжный сюжет. Посмотрю на досуге, и разумеется автору за исполнение 5+ :респект:
IIIakk
Стаж: 12 лет 5 мес.
Сообщений: 593
Ratio: 4.515
100%
russia.gif
У Кирюши рот даже в режиме standby открыт. Запахни душу, Кирюша!
Hell or Paradise
Стаж: 11 лет 5 мес.
Сообщений: 161
Ratio: 2308.707
100%
nnm-club.gif
Цитата:
Качество видео: BDRip

Качество видео, скажем прямо - плохое!
tatazyx
Стаж: 12 лет
Сообщений: 9
Ratio: 21.496
71.17%
Спасибо за релиз! А мне больше нравятся наши и старые западные (с Вивьен Ли и с Софи Марсо).
Big BooT's
Стаж: 13 лет 4 мес.
Сообщений: 1
Ratio: 23.982
16.35%
Откуда: Санкт-Петербург
russia.gif
Нормальное качество.
veber_06
Стаж: 13 лет
Сообщений: 223
Ratio: 8.829
3.76%
ukraine.gif
Можно сказать что фильм шикарный,вот только Вронский какой то "хлюпик".
Wowentus
Стаж: 13 лет 2 мес.
Сообщений: 33
Ratio: 2.615
100%
russia.gif
Мдаа..ещё одна печалька..Снят не как фильм, а как сон сумасшедшего.
leo_pard
Стаж: 13 лет 6 мес.
Сообщений: 44
Ratio: 0.763
100%
russia.gif
Только из-за Киры Найтли скачала.... Но только до половины хватило сил досмотреть, выключила и все... Ужасно,ужасно!!!! Не зря этот фильм не получил Оскара несколько дней назад! Это худшее,что я когда либо видела... ::( :(
Dob3rMan
Стаж: 12 лет 4 мес.
Сообщений: 154
Ratio: 7.041
Раздал: 23.95 TB
Поблагодарили: 41
100%
art-61
Спасибо!!!
Показать сообщения:   
Начать новую тему   Ответить на тему    Торрент-трекер NNM-Club -> Зарубежное кино -> Зарубежные Фильмы (SD) Часовой пояс: GMT + 3
Страница 1 из 1