Классический форум-трекер
canvas not supported
Нас вместе: 4 233 630

Отчаянный / Desperado (1995) HDTVRip


 
 
RSS
Начать новую тему   Ответить на тему    Торрент-трекер NNM-Club -> Зарубежное кино -> Зарубежные Фильмы (SD)
Автор Сообщение
Гипнотизёр ®
Стаж: 11 лет 3 мес.
Сообщений: 5
Ratio: 12.046
Раздал: 163 GB
Поблагодарили: 631
100%
Откуда: Саратов
russia.gif
Отчаянный / Desperado (1995) HDTVRip
Русское название: Отчаянный
Оригинальное название: Desperado
Год выпуска: 1995
Жанр: Боевик, Триллер, Криминал

Описание фильма:
Он - бесстрашный герой, ведущий охоту на короля преступного мира. Но - исполнить приговор невозможно. На карту вновь поставлена жизнь любимой, и начинается жестокое противостояние одиночки и армии вооруженных до зубов головорезов.

Режиссер: Роберт Родригес
Актеры: Антонио Бандерас, Сальма Хайек, Хоаким де Альмейда, Чич Марин, Стив Бушеми, Карлос Гомез, Квентин Тарантино, Тито Ларрива, Энджел Авилес, Дэнни Трехо

Продолжительность: 01:40:15
Перевод: Авторский (одноголосый)
Автор перевода: Д.Пучков (Гоблин)



Видеокодек: Xvid
Битрейт видео: 903 kbps
Размер кадра: 656x352
Качество видео: HDTVRip
Аудиокодек: MP3
Битрейт аудио: 128.00 kbps
Общее
Полное имя : C:\Users\Danila\Desktop\Desperado.1995.GOBLIN.HDTVRip.avi
Формат : AVI
Формат/Информация : Audio Video Interleave
Размер файла : 747 Мбайт
Продолжительность : 1 ч. 40 м.
Общий поток : 1042 Кбит/сек
Программа кодирования : VirtualDubMod 1.5.10.2 (build 2540/release)
Библиотека кодирования : VirtualDubMod build 2540/release

Видео
Идентификатор : 0
Формат : MPEG-4 Visual
Профиль формата : Advanced Simple@L5
Параметр BVOP формата : 1
Параметр QPel формата : Нет
Параметр GMC формата : Без точки перехода
Параметр матрицы формата : Выборочная
Идентификатор кодека : XVID
Идентификатор кодека/Подсказка : XviD
Продолжительность : 1 ч. 40 м.
Битрейт : 904 Кбит/сек
Ширина : 656 пикселей
Высота : 352 пикселя
Соотношение сторон : 1,85:1
Частота кадров : 25,000 кадров/сек
Цветовое пространство : YUV
Субдискретизация насыщенности : 4:2:0
Битовая глубина : 8 бит
Тип развёртки : Прогрессивная
Метод сжатия : С потерями
Бит/(Пиксели*Кадры) : 0.157
Размер потока : 648 Мбайт (87%)
Библиотека кодирования : XviD 1.2.1 (UTC 2008-12-04)

Аудио
Идентификатор : 1
Формат : MPEG Audio
Версия формата : Version 1
Профиль формата : Layer 3
Идентификатор кодека : 55
Идентификатор кодека/Подсказка : MP3
Продолжительность : 1 ч. 40 м.
Вид битрейта : Постоянный
Битрейт : 128 Кбит/сек
Каналы : 2 канала
Частота : 48,0 КГц
Метод сжатия : С потерями
Размер потока : 91,8 Мбайт (12%)
Выравнивание : Соединение по промежуткам
Продолжительность промежутка : 40 мс. (1,00 видеокадр)
Время предзагрузки промежутка : 504 мс.
Библиотека кодирования : LAME3.98r
Настройки программы : -m s -V 4 -q 2 -lowpass 17 -b 128
Скриншоты:
Отличнейший фильм. Лучшая роль Бандераса. Абсолютно не претендую на объективную рецензию в отношении этого фильма (впрочем, объективной она не может быть по определению, т. к. все оценки чего бы то ни было — это просто чье-то субъективное мнение), поэтому просто выскажу свои мыслишки.

Влюбился с первых же кадров. Фильм необычайно стилен, Бандерас чертовски привлекателен, Хайек невероятно красива, Марин, Тарантино и Бушеми просто крайне обаятельны, ну, а юмор чрезвычайно черен. Ничего не забыл? Ах да! Еще колоритнейший Трехо, персонаж которого за весь фильм не произнес ни одной фразы, но от взгляда которого мурашки по коже так и бегают.

Сюжет, мягко говоря, оригинальностью не блещет, но это смотря как преподнести. Здесь дело не в сюжете, а в манере повествования, что Родригесу удалось на все 100. Приколы в фильме такие, что не знаю, как вы, а я добрую половину фильма, ну, просто лежал под диваном, невольно думая: «А не сыграю ли я в ящик со смеху?» Родригес по этой части перещеголял даже своего наставника Тарантино.

Конечно, не все в фильме идеально: немножко портит впечатление несколько смазанная концовка, Хайек, не особо побаловавшая нас своей игрой в фильме, ну, и несколько «артефактов», из-за которых фильм смотрится как стеб над жанром «боевика» (например, головокружительный трюк дублера Бандераса, перепрыгивающего спиной(!) с крыши одного дома на другой (несмотря на разделяющее их расстояние порядка нескольких метров) и приземляющийся а ля «знал бы, где упаду — соломки б подстелил»).

Ну, а в остальном — браво Родригесу. Классная постановка боевых сцен, отличнейшее музыкальное сопровождение (поющий в баре Бандерас и Los Lobos — просто блеск), супер-юмор (особенно Тарантино, рассказывающий «сортирный» анекдот), великолепные комедийные (и не только) актеры, ну, и любовный сюжет, в конце концов.

8 из 10
Время раздачи: С 15:00 до 22:00
[NNM-Club.ru]_Desperado.1995.GOBLIN.HDTVRip.avi.torrent
 Торрент: Платиновая раздача  Зарегистрирован
 
Скачать


Примагнититься
 Зарегистрирован:   07 Фев 2013 13:57:58
 Размер:   747 MB  (
 Рейтинг:   4.9 (Голосов: 50)
 Поблагодарили:   126
 Проверка:   Оформление проверено модератором 07 Фев 2013 16:36:37
Как cкачать  ·  Как раздать  ·  Правильно оформить  ·  Поднять ратио!  
neZhriMoeSalo
Стаж: 12 лет 3 мес.
Сообщений: 150
Ratio: 37.552
2.08%
ukraine.gif
в детстве пересматривал тыщи раз.... )))
Показать сообщения:   
Начать новую тему   Ответить на тему    Торрент-трекер NNM-Club -> Зарубежное кино -> Зарубежные Фильмы (SD) Часовой пояс: GMT + 3
Страница 1 из 1