Классический форум-трекер
canvas not supported
Нас вместе: 4 231 787

Операция "Арго" / Argo (2012) BDRip [ATV2/iPad | H.264/720p]


 
 
RSS
Начать новую тему   Ответить на тему    Торрент-трекер NNM-Club -> Аудио и Видео -> Зарубежное видео HD для устройств Apple
Автор Сообщение
gekka ®
Стаж: 17 лет 1 мес.
Сообщений: 2123
Ratio: 96.255
Поблагодарили: 135019
100%
Откуда: Москва, Дорогомилово
ussr.gif
Операция «Арго» / Argo (2012) BDRip
«Кино для прикрытия»

Общая информация

Русское название: Операция «Арго»
Оригинальное название: Argo
Год: 2012
Страна/Студия: США / © Warner Bros. Pictures, GK Films, Smoke House
Жанр: триллер, драма, история
Время: 02:00:23.210
Перевод: Русский дублированный
Субтитры: Вшитые отключаемые
Язык субтитров: Английский
Навигация: по главам
Рейтинг MPAA -R
Создатели и актеры

Режиссёр: Бен Аффлек
Сценарий: Джошуа Бирмен, Крис Террио, Тони Мендес
Продюсер: Бен Аффлек, Джордж Клуни, Грант Хеслов
В ролях: Бен Аффлек, Брайан Крэнстон, Алан Аркин, Джон Гудмен, Виктор Гарбер, Тейт Донован, Клеа Дюваль, Скут МакНэйри, Рори Кокрейн, Кристофер Денхам

Описание: 4 ноября 1979 г. революция в Иране достигает своего апогея, исламисты штурмуют посольство США в Тегеране и берут в заложники 52 американца. Но в этом хаосе шестерым удается ускользнуть и найти прибежище в доме канадского посла. Понимая, что их обнаружение и, вероятнее всего, убийство — всего лишь вопрос времени, Тони Мендес, специалист ЦРУ по тайному вывозу людей из страны, предлагает рискованный план безопасной эвакуации. План столь невероятен, что такое бывает только в кино.

Дата мировой премьеры: 31 августа 2012
Дата российской премьеры: 8 ноября 2012, «Каро-Премьер»
Дата выхода DVD релиза: 14 февраля 2013, «CP Дистрибуция»
Дата выхода Blu-ray релиза: 14 февраля 2013, «CP Дистрибуция»
HD 720p

Видео: H.264, 23.976 fps, ~ 5700 Кбит/сек, 1280x536 (2.40:1)
Аудио:
* ААС 2.0 160 kbps - Русский дублированный
* АС3 5.1 384 kbps - Русский дублированный
* ААС 2.0 192 kbps - Английский
* АС3 5.1 640 kbps - Английский

Субтитры:
* 3GPP Text - Английский
Код:

Общее
Полное имя : /Users/gekkas/Movies/CREATE/ARGO/ARGO.2012 (HD).m4v
Формат : MPEG-4
Идентификатор кодека : M4V
Размер файла : 5,96 Гбайт
Продолжительность : 2 ч. 0 м.
Режим общего битрейта : Переменный
Общий поток : 7086 Кбит/сек
Название фильма : Операция «Арго»
Исполнитель : Ben Affleck
Жанр : Drama
Дата записи : UTC 2012-10-12 07:00:00
Дата кодирования : UTC 2013-02-08 11:50:48
Дата пометки : UTC 2013-02-08 12:30:48
Правообладатель : © Warner Bros. Pictures, GK Films, Smoke House
Обложка : Yes
Примечание : «Кино для прикрытия»
sonm : Argo
desc : 4 ноября 1979 г. революция в Иране достигает своего апогея, исламисты штурмуют посольство США в Тегеране и берут в заложники 52 американца. Но в этом хаосе шестерым удается ускользнуть и найти прибежище в доме канадского посла.
ldes : 4 ноября 1979 г. революция в Иране достигает своего апогея, исламисты штурмуют посольство США в Тегеране и берут в заложники 52 американца. Но в этом хаосе шестерым удается ускользнуть и найти прибежище в доме канадского посла. Понимая, что их обнаружение и, вероятнее всего, убийство — всего лишь вопрос времени, Тони Мендес, специалист ЦРУ по тайному вывозу людей из страны, предлагает рискованный план безопасной эвакуации. План столь невероятен, что такое бывает только в кино.
hdvd : 1
stik : 9
rtng : 0
cnID : 589625320
xid : Apple:vendor_id:2012-462487
iTunEXTC : mpaa|R|400|
iTunMOVI : <?xml version="1.0" encoding="UTF-8"?> / <!DOCTYPE plist PUBLIC "-//Apple//DTD PLIST 1.0//EN" "http://www.apple.com/DTDs/PropertyList-1.0.dtd"> / <plist version="1.0"> / <dict> /   <key>cast</key> /   <array> /     <dict> /       <key>name</key> /       <string>Бен Аффлек</string> /     </dict> /     <dict> /       <key>name</key> /       <string>Брайан Крэнстон</string> /     </dict> /     <dict> /       <key>name</key> /       <string>Алан Аркин</string> /     </dict> /     <dict> /       <key>name</key> /       <string>Джон Гудмен</string> /     </dict> /     <dict> /       <key>name</key> /       <string>Виктор Гарбер</string> /     </dict> /     <dict> /       <key>name</key> /       <string>Тейт Донован</string> /     </dict> /     <dict> /       <key>name</key> /       <string>Клеа Дюваль</string> /     </dict> /     <dict> /       <key>name</key> /       <string>Скут МакНэйри</string> /     </dict> /     <dict> /       <key>name</key> /       <string>Рори Кокрейн</string> /     </dict> /     <dict> /       <key>name</key> /       <string>Кристофер Денхам</string> /     </dict> /   </array> /   <key>directors</key> /   <array> /     <dict> /       <key>name</key> /       <string>Бен Аффлек</string> /     </dict> /   </array> /   <key>producers</key> /   <array> /     <dict> /       <key>name</key> /       <string>Бен Аффлек</string> /     </dict> /     <dict> /       <key>name</key> /       <string>Джордж Клуни</string> /     </dict> /     <dict> /       <key>name</key> /       <string>Грант Хеслов</string> /     </dict> /   </array> /   <key>screenwriters</key> /   <array> /     <dict> /       <key>name</key> /       <string>Джошуа Бирмен</string> /     </dict> /     <dict> /       <key>name</key> /       <string>Крис Террио</string> /     </dict> /     <dict> /       <key>name</key> /       <string>Тони Мендес</string> /     </dict> /   </array> /   <key>studio</key> /   <string>© Warner Bros. Pictures, GK Films, Smoke House</string> / </dict> / </plist>
Видео #1
Идентификатор : 1
Формат : AVC
Формат/Информация : Advanced Video Codec
Профиль формата : High@L4.1
Параметр CABAC формата : Да
Параметр ReFrames формата : 10 кадров
Идентификатор кодека : avc1
Идентификатор кодека/Информация : Advanced Video Coding
Продолжительность : 2 ч. 0 м.
Битрейт : 5700 Кбит/сек
Максимальный битрейт : 22,5 Мбит/сек
Ширина : 1280 пикселей
Высота : 536 пикселей
Соотношение сторон : 2,40:1
Режим частоты кадров : Постоянный
Частота кадров : 23,976 кадра/сек
Цветовое пространство : YUV
Субдискретизация насыщенности : 4:2:0
Битовая глубина : 8 бит
Тип развёртки : Прогрессивная
Бит/(Пиксели*Кадры) : 0.347
Размер потока : 4,79 Гбайт (80%)
Заголовок : Argo (2012)
Библиотека кодирования : x264 core 129 r2245+704+36 8e61944 tMod+MixAQ [8-bit@all X86_64]
Настройки программы : cabac=1 / ref=11 / deblock=1:-3:-3 / analyse=0x3:0x113 / me=umh / subme=11 / psy=1 / fade_compensate=0.60 / psy_rd=0.95:0.15 / mixed_ref=1 / me_range=48 / chroma_me=1 / trellis=2 / 8x8dct=1 / cqm=0 / deadzone=21,11 / fast_pskip=0 / chroma_qp_offset=-3 / threads=18 / lookahead_threads=3 / sliced_threads=0 / nr=0 / decimate=0 / interlaced=0 / bluray_compat=0 / constrained_intra=0 / fgo=5 / bframes=12 / b_pyramid=1 / b_adapt=2 / b_bias=0 / direct=3 / weightb=1 / open_gop=0 / weightp=2 / keyint=250 / keyint_min=23 / scenecut=40 / intra_refresh=0 / rc_lookahead=120 / rc=2pass / mbtree=1 / bitrate=5700 / ratetol=1.0 / qcomp=0.70 / qpmin=0 / qpmax=69 / qpstep=4 / cplxblur=20.0 / qblur=0.5 / vbv_maxrate=25000 / vbv_bufsize=25000 / nal_hrd=none / ip_ratio=1.40 / aq=4 / aq-strength=0.90 / aq-sensitivity=10.00 / aq-ifactor=1.00 / aq-pfactor=1.00 / aq-bfactor=1.00 / aq2=0
Язык : English
Дата кодирования : UTC 2013-02-08 11:50:48
Дата пометки : UTC 2013-02-08 11:52:17
Коэффициенты матрицы : BT.709
Видео #2
Идентификатор : 8
Формат : JPEG
Идентификатор кодека : jpeg
Продолжительность : 2 ч. 0 м.
Вид битрейта : Переменный
Битрейт : 595 бит/сек
Ширина : 640 пикселей
Высота : 268 пикселей
Соотношение сторон : 2,40:1
Режим частоты кадров : Переменный
Частота кадров : 0,002 кадр/сек
Минимальная частота кадров : 0,001 кадр/сек
Максимальная частота кадров : 0,002 кадр/сек
Цветовое пространство : YUV
Субдискретизация насыщенности : 4:2:0
Битовая глубина : 8 бит
Метод сжатия : С потерями
Бит/(Пиксели*Кадры) : 1.734
Размер потока : 436 Кбайт (0%)
Язык : English
Дата кодирования : UTC 2013-02-08 12:30:42
Дата пометки : UTC 2013-02-08 12:30:42
Аудио #1
Идентификатор : 2
Формат : AAC
Формат/Информация : Advanced Audio Codec
Профиль формата : LC
Идентификатор кодека : 40
Продолжительность : 2 ч. 0 м.
Вид битрейта : Переменный
Битрейт : 163 Кбит/сек
Максимальный битрейт : 217 Кбит/сек
Каналы : 2 канала
Расположение каналов : Front: L R
Частота : 48,0 КГц
Метод сжатия : С потерями
Размер потока : 141 Мбайт (2%)
Заголовок : AAC Russian
Язык : Russian
Дата кодирования : UTC 2013-02-08 11:51:59
Дата пометки : UTC 2013-02-08 11:52:17
Аудио #2
Идентификатор : 3
Формат : AC-3
Формат/Информация : Audio Coding 3
Расширение режима : CM (complete main)
Параметр Endianness формата : Big
Идентификатор кодека : ac-3
Продолжительность : 2 ч. 0 м.
Вид битрейта : Постоянный
Битрейт : 384 Кбит/сек
Каналы : 6 каналов
Расположение каналов : Front: L C R, Side: L R, LFE
Частота : 48,0 КГц
Битовая глубина : 16 бит
Метод сжатия : С потерями
Размер потока : 331 Мбайт (5%)
Заголовок : AC3 Russian
Язык : Russian
Дата кодирования : UTC 2013-02-08 11:52:01
Дата пометки : UTC 2013-02-08 11:52:17
Аудио #3
Идентификатор : 4
Формат : AAC
Формат/Информация : Advanced Audio Codec
Профиль формата : LC
Идентификатор кодека : 40
Продолжительность : 2 ч. 0 м.
Вид битрейта : Переменный
Битрейт : 192 Кбит/сек
Максимальный битрейт : 238 Кбит/сек
Каналы : 2 канала
Расположение каналов : Front: L R
Частота : 48,0 КГц
Метод сжатия : С потерями
Размер потока : 168 Мбайт (3%)
Заголовок : AAC English
Язык : English
Дата кодирования : UTC 2013-02-08 11:52:06
Дата пометки : UTC 2013-02-08 11:52:17
Аудио #4
Идентификатор : 5
Формат : AC-3
Формат/Информация : Audio Coding 3
Расширение режима : CM (complete main)
Параметр Endianness формата : Big
Идентификатор кодека : ac-3
Продолжительность : 2 ч. 0 м.
Вид битрейта : Постоянный
Битрейт : 640 Кбит/сек
Каналы : 6 каналов
Расположение каналов : Front: L C R, Side: L R, LFE
Частота : 48,0 КГц
Битовая глубина : 16 бит
Метод сжатия : С потерями
Размер потока : 551 Мбайт (9%)
Заголовок : AC3 English
Язык : English
Дата кодирования : UTC 2013-02-08 11:52:09
Дата пометки : UTC 2013-02-08 11:52:17
Текст #1
Идентификатор : 6
Формат : Timed text
Режим смешивания : sbtl
Идентификатор кодека : tx3g
Продолжительность : 2 ч. 0 м.
Вид битрейта : Переменный
Битрейт : 69 бит/сек
Размер потока : 61,0 Кбайт (0%)
Заголовок : Subtitle English
Язык : English
Дата кодирования : UTC 2013-02-08 11:52:17
Дата пометки : UTC 2013-02-08 11:52:17
Текст #2
Идентификатор : 7
Формат : Apple text
Идентификатор кодека : text
Продолжительность : 2 ч. 0 м.
Вид битрейта : Постоянный
Битрейт : 0 бит/сек
Размер потока : 312 байт (0%)
Язык : English
Дата кодирования : UTC 2013-02-08 12:30:34
Дата пометки : UTC 2013-02-08 12:30:34
Меню
00:00:00.000 : 00:00:00.000
00:12:39.759 : 00:12:39.759
00:19:36.091 : 00:19:36.091
00:28:59.571 : 00:28:59.571
00:42:48.607 : 00:42:48.607
00:50:01.540 : 00:50:01.540
01:00:00.054 : 01:00:00.054
01:09:09.520 : 01:09:09.520
01:19:46.823 : 01:19:46.823
01:30:14.117 : 01:30:14.117
01:39:00.851 : 01:39:00.851
01:51:34.771 : 01:51:34.771

x264 [info]: frame I:1299 Avg QP:16.34 size:118601
x264 [info]: frame P:39621 Avg QP:19.85 size: 45657
x264 [info]: frame B:132241 Avg QP:21.09 size: 24043
x264 [info]: consecutive B-frames: 2.9% 5.4% 8.4% 19.1% 16.1% 30.2% 7.7% 3.7% 2.3% 1.5% 0.9% 0.8% 0.9%
x264 [info]: mb I I16..4: 16.8% 62.3% 20.9%
x264 [info]: mb P I16..4: 0.7% 8.0% 1.0% P16..4: 25.5% 41.4% 16.3% 0.0% 0.0% skip: 7.0%
x264 [info]: mb B I16..4: 0.1% 2.2% 0.1% B16..8: 40.0% 20.1% 4.7% direct: 9.4% skip:23.4% L0:41.8% L1:47.2% BI:11.0%
x264 [info]: 8x8 transform intra:82.3% inter:56.0%
x264 [info]: direct mvs spatial:98.5% temporal:1.5%
x264 [info]: coded y,uvDC,uvAC intra: 93.9% 91.9% 83.0% inter: 40.6% 40.0% 23.1%
x264 [info]: i16 v,h,dc,p: 29% 12% 18% 41%
x264 [info]: i8 v,h,dc,ddl,ddr,vr,hd,vl,hu: 11% 6% 10% 11% 15% 12% 12% 11% 12%
x264 [info]: i4 v,h,dc,ddl,ddr,vr,hd,vl,hu: 15% 7% 7% 9% 14% 13% 13% 11% 12%
x264 [info]: i8c dc,h,v,p: 24% 14% 11% 51%
x264 [info]: Weighted P-Frames: Y:97.6% UV:1.8%
x264 [info]: ref P L0: 54.0% 9.8% 14.9% 6.4% 4.4% 3.3% 2.7% 1.6% 1.4% 1.2% 0.3% 0.0%
x264 [info]: ref B L0: 78.3% 10.3% 4.9% 2.2% 1.5% 1.1% 0.8% 0.5% 0.3%
x264 [info]: ref B L1: 91.6% 8.4%
x264 [info]: kb/s:5696.28
Скриншоты:


Тэги и обложка


Sort Name: Argo
XID: Apple:vendor_id:2012-462487
contentID: 589625320
Copyright: © Warner Bros. Pictures, GK Films, Smoke House
Screenwriters: Джошуа Бирмен, Крис Террио, Тони Мендес
Producers: Бен Аффлек, Джордж Клуни, Грант Хеслов
Director: Бен Аффлек
Cast: Бен Аффлек, Брайан Крэнстон, Алан Аркин, Джон Гудмен, Виктор Гарбер, Тейт Донован, Клеа Дюваль, Скут МакНэйри, Рори Кокрейн, Кристофер Денхам
Studio: © Warner Bros. Pictures, GK Films, Smoke House
Rating: 5
Long Description: 4 ноября 1979 г. революция в Иране достигает своего апогея, исламисты штурмуют посольство США в Тегеране и берут в заложники 52 американца. Но в этом хаосе шестерым удается ускользнуть и найти прибежище в доме канадского посла. Понимая, что их обнаружение и, вероятнее всего, убийство — всего лишь вопрос времени, Тони Мендес, специалист ЦРУ по тайному вывозу людей из страны, предлагает рискованный план безопасной эвакуации. План столь невероятен, что такое бывает только в кино.
Description: 4 ноября 1979 г. революция в Иране достигает своего апогея, исламисты штурмуют посольство США в Тегеране и берут в заложники 52 американца. Но в этом хаосе шестерым удается ускользнуть и найти прибежище в доме канадского посла.
Release Date: 2012-10-12T07:00:00Z
Genre: Drama
Comments: «Кино для прикрытия»
Artist: Ben Affleck
Name: Операция «Арго»

За исходник спасибо: Группа:


Релиз подготовлен для просмотра на Apple TV, iPad.
Для просмотра данного релиза на компьютере с ОС Windows рекомендуется использовать VLC media player.
[NNM-Club.ru]_ARGO 2012 (HD).torrent
 Торрент: Платиновая раздача  Зарегистрирован
 
Скачать


 Зарегистрирован:   08 Фев 2013 18:43:57
 Размер:   5.96 GB  (
 Рейтинг:   4.4 (Голосов: 27)
 Поблагодарили:   65
 Проверка:   Оформление проверено модератором 08 Фев 2013 22:13:44
Как cкачать  ·  Как раздать  ·  Правильно оформить  ·  Поднять ратио!  

_________________
My make-up may be flaking, but my smile still stays on.
Показать сообщения:   
Начать новую тему   Ответить на тему    Торрент-трекер NNM-Club -> Аудио и Видео -> Зарубежное видео HD для устройств Apple Часовой пояс: GMT + 3
Страница 1 из 1