Классический форум-трекер
canvas not supported
Нас вместе: 4 210 869

Тайны следствия - 12 (2013) DVBRip [H.264] (1-12 серии из 12)


 
 
RSS
Начать новую тему   Ответить на тему    Торрент-трекер NNM-Club -> Отечественные сериалы
Автор Сообщение
batonchik ®
RG Releasers
Котоаплоадер 10 PB+
Почетный Куратор Видео
Стаж: 14 лет 9 мес.
Сообщений: 26013
Ratio: 71K
Раздал: 13.022 PB
Поблагодарили: 1419817
100%
Откуда: СССР
ussr.gif
Тайны следствия - 12 (2013) DVBRip [H.264] (1-12 серии из 12)
Русское название: Тайны следствия - 12
Год выпуска: 2013
Производство: Россия, Форвард-Фильм, Студия Панорама
Жанр: Детектив, драма, криминал

Режиссер: Рената Грицкова
Актеры: Анна Ковальчук, Вячеслав Захаров, Игорь Николаев (II), Александр Новиков (III), Игорь Григорьев (IV), Ольга Павловец, Мирослав Малич, Злата Ильченко, Игорь Соплин, Александр Шпилько, Андрей Шарков, Светлана Щедрина, Юлия Яковлева, Олег Алмазов, Дмитрий Поднозов, Александр Овчинников (III), Николай Смирнов (V), Маргарита Бычкова, Татьяна Бондаренко (II), Алексей Митин, Екатерина Зорина, Наталья Зацепина, Евгений Новоселов (II)

Описание фильма:
Детективный сериал, повествующий о нелегких буднях работников прокуратуры, ежедневно лицом к лицу сталкивающихся с жестоким миром преступности.

Мария Швецова продолжает трудиться в районном следственном комитете под руководством Николая Филонова. Каждый день становится для неё настоящим испытанием, ведь ей приходится бороться не только и не столько с преступностью, сколько с косностью и откровенным саботажем реальной следственной работы со стороны руководства. К счастью, коллеги и друзья не оставляют Машу в трудную минуту. Новый следователь Колонкова, с которой Швецова уже успела подружиться, Кораблёв, вернувшийся на службу в полицию, и неизменный друг и учитель Ковин всегда помогут ей в любом самом сложном деле. Кроме того, дома её ждёт дружная семья, вновь пополнившаяся вернувшимся из Англии старшим сыном Швецовой Костиком...

Премьера (РФ): 1 января 2000
Релиз от:

Продолжительность: ~ 00:47:00 серия
Качество видео: DVBRip (batonchik)

Видеокодек: MPEG-4 AVC/H.264
Битрейт видео: ~ 2100 Кбит/сек
Размер кадра: 720х406
Аудио: Русский, МР2, 2 ch, 256 Кбит/с
--[Information] [08.02.2013 20:31:18] Standard error stream
---[NoImage] raw [info]: 720x406p 1:1 @ 25/1 fps (cfr)
---[NoImage] x264 [info]: using SAR=1/1
---[NoImage] x264 [info]: using cpu capabilities: MMX2 SSE2Fast SSSE3 FastShuffle SSE4.2 AVX
---[NoImage] x264 [info]: profile High, level 4.1
---[NoImage]
---[NoImage] x264 [info]: frame I:965 Avg QP:13.66 size: 65170
---[NoImage] x264 [info]: frame P:26015 Avg QP:16.20 size: 29537
---[NoImage] x264 [info]: frame B:100492 Avg QP:20.09 size: 5046

---[NoImage] x264 [info]: consecutive B-frames: 1.4% 1.7% 10.3% 10.5% 5.5% 69.6% 0.8% 0.1% 0.1%
---[NoImage] x264 [info]: mb I I16..4: 3.9% 70.9% 25.2%
---[NoImage] x264 [info]: mb P I16..4: 0.7% 11.1% 3.0% P16..4: 28.5% 24.2% 25.9% 3.3% 1.5% skip: 1.7%
---[NoImage] x264 [info]: mb B I16..4: 0.1% 1.1% 0.1% B16..8: 38.0% 11.5% 3.4% direct: 8.0% skip:37.8% L0:35.5% L1:34.6% BI:29.9%
---[NoImage] x264 [info]: 8x8 transform intra:75.8% inter:53.8%
---[NoImage] x264 [info]: direct mvs spatial:97.6% temporal:2.4%
---[NoImage] x264 [info]: coded y,uvDC,uvAC intra: 90.9% 91.7% 74.0% inter: 29.0% 29.1% 8.8%
---[NoImage] x264 [info]: i16 v,h,dc,p: 23% 22% 12% 43%
---[NoImage] x264 [info]: i8 v,h,dc,ddl,ddr,vr,hd,vl,hu: 20% 15% 19% 6% 7% 8% 7% 9% 9%
---[NoImage] x264 [info]: i4 v,h,dc,ddl,ddr,vr,hd,vl,hu: 27% 14% 7% 7% 9% 11% 8% 9% 8%
---[NoImage] x264 [info]: i8c dc,h,v,p: 42% 25% 23% 10%
---[NoImage] x264 [info]: Weighted P-Frames: Y:1.3% UV:0.3%
---[NoImage] x264 [info]: ref P L0: 43.2% 12.5% 20.3% 4.8% 6.4% 3.3% 4.4% 1.9% 2.9% 0.5% 0.0%
---[NoImage] x264 [info]: ref B L0: 81.7% 8.7% 3.3% 2.1% 1.6% 1.5% 0.8% 0.4%
---[NoImage] x264 [info]: ref B L1: 95.8% 4.2%
---[NoImage] x264 [info]: kb/s:2099.89
---[NoImage] encoded 127472 frames, 34.41 fps, 2099.89 kb/s
--[Information] Final statistics
---[Information] [08.02.2013 20:31:18] Video Bitrate Desired: 2100 kbit/s
---[Information] [08.02.2013 20:31:18] Video Bitrate Obtained (approximate): 2101 kbit/s
Общее
Уникальный идентификатор : 206111734927650919704953769552753681008 (0x9B0FAD1CAACD8E9883390579C2D76270)
Полное имя :\Тайны следствия 12.DVBRip.NNM-CLUB\Тайны следствия 12.07-08.DVBRip.NNM-CLUB.mkv
Формат : Matroska
Версия формата : Version 4 / Version 2
Размер файла : 1,39 Гбайт
Продолжительность : 1 ч. 24 м.
Общий поток : 2358 Кбит/сек
Название фильма : Тайны следствия 12.07-08.DVBRip.NNM-CLUB
Дата кодирования : UTC 2013-02-08 18:42:47
Программа кодирования : mkvmerge v6.0.0 ('Coming Up For Air') built on Jan 20 2013 09:52:00
Библиотека кодирования : libebml v1.3.0 + libmatroska v1.4.0

Видео
Идентификатор : 1
Формат : AVC
Формат/Информация : Advanced Video Codec
Профиль формата : High@L4.1
Параметр CABAC формата : Да
Параметр ReFrames формата : 9 кадров
Идентификатор кодека : V_MPEG4/ISO/AVC
Продолжительность : 1 ч. 24 м.
Битрейт : 2100 Кбит/сек
Ширина : 720 пикселей
Высота : 406 пикселей
Соотношение сторон : 16:9
Режим частоты кадров : Постоянный
Частота кадров : 25,000 кадров/сек
Цветовое пространство : YUV
Субдискретизация насыщенности : 4:2:0
Битовая глубина : 8 бит
Тип развёртки : Прогрессивная
Бит/(Пиксели*Кадры) : 0.287
Размер потока : 1,21 Гбайт (87%)
Заголовок : Тайны следствия 12.07-08.DVBRip.NNM-CLUB
Библиотека кодирования : x264 core 129 r2245 bc13772
Настройки программы : cabac=1 / ref=9 / deblock=1:-2:-2 / analyse=0x3:0x133 / me=umh / subme=10 / psy=1 / psy_rd=1.00:0.15 / mixed_ref=1 / me_range=24 / chroma_me=1 / trellis=2 / 8x8dct=1 / cqm=0 / deadzone=21,11 / fast_pskip=0 / chroma_qp_offset=-3 / threads=12 / lookahead_threads=2 / sliced_threads=0 / nr=0 / decimate=1 / interlaced=0 / bluray_compat=0 / constrained_intra=0 / bframes=8 / b_pyramid=2 / b_adapt=2 / b_bias=0 / direct=3 / weightb=0 / open_gop=0 / weightp=2 / keyint=250 / keyint_min=23 / scenecut=40 / intra_refresh=0 / rc_lookahead=50 / rc=2pass / mbtree=1 / bitrate=2100 / ratetol=1.0 / qcomp=0.60 / qpmin=0 / qpmax=69 / qpstep=4 / cplxblur=20.0 / qblur=0.5 / ip_ratio=1.40 / aq=1:1.00
Язык : Russian
Default : Да
Forced : Нет

Аудио
Идентификатор : 2
Формат : MPEG Audio
Версия формата : Version 1
Профиль формата : Layer 2
Идентификатор кодека : A_MPEG/L2
Идентификатор кодека/Подсказка : MP2
Продолжительность : 1 ч. 24 м.
Вид битрейта : Постоянный
Битрейт : 256 Кбит/сек
Каналы : 2 канала
Частота : 48,0 КГц
Метод сжатия : С потерями
Размер потока : 155 Мбайт (11%)
Язык : Russian
Default : Да
Forced : Нет
Одна из серий заканчивается тем, что Мария Сергеевна Швецова рожает дочку. При этом показываются кадры из роддома — как моют новорожденную девочку, как ее отдают маме и т. д. Эти кадры не постановочные — во время съемок сериала Анна Ковальчук забеременела, и в фильм вставили кадры из личного семейного архива актрисы.


Тайны следствия на NNM-CLUB

Скриншоты:






Время раздачи: круглогодично

Играю на аккордеоне за "Спасибо"
 Торрент: Платиновая раздача  Зарегистрирован
 
Скачать


 Зарегистрирован:   13 Фев 2013 11:00:15
 Размер:   8.36 GB  (
 Рейтинг:   4.5 (Голосов: 95)
 Поблагодарили:   411
 Проверка:   Оформление проверено модератором 13 Фев 2013 13:13:06
•••
ПОЖЕРТВОВАТЬ МНЕ НА ЛЕКАРСТВА И ЛЕЧЕНИЕ | Поддержка меня и моих релизов
Yoomoney ••• 41001324015940 | QIWI кошелёк ••• ABLEC166
•••
Как cкачать  ·  Как раздать  ·  Правильно оформить  ·  Поднять ратио!  
UrryMan
Стаж: 11 лет 11 мес.
Сообщений: 264
Ratio: 86.271
Раздал: 56.1 TB
Поблагодарили: 9092
100%
Откуда: С-Пб
russia.gif
batonchik писал(а): Перейти к сообщению
Видеокодек: MPEG-4 AVC/H.264
Битрейт видео: ~ 2100 Кбит/сек

Спасибо за раздачу в данном формате!

_________________
Не ошибается тот, кто ничего не делает.
Николай Анатольевич
   
Почетный релизер
Стаж: 12 лет 10 мес.
Сообщений: 46539
Ratio: 10.067
Раздал: 8.732 TB
Поблагодарили: 2660397
100%
estonia.gif
Спасибо :приветствую:
batonchik ®
RG Releasers
Котоаплоадер 10 PB+
Почетный Куратор Видео
Стаж: 14 лет 9 мес.
Сообщений: 26013
Ratio: 71K
Раздал: 13.022 PB
Поблагодарили: 1419817
100%
Откуда: СССР
ussr.gif
Тайны следствия - 13 (2013) [H.264] DVBRip =)
Лёгкий Ветер
Стаж: 9 лет 9 мес.
Сообщений: 9
Ratio: 20.821
100%
Спасибо!
magstorm
Стаж: 11 лет 3 мес.
Сообщений: 118
Ratio: 13.294
Поблагодарили: 2516
96.61%
russia.gif
Спасибо за формат рипа mkv
enemy509
Стаж: 13 лет 2 мес.
Сообщений: 22
Ratio: 23.223
100%
ukraine.gif
дякую!
Показать сообщения:   
Начать новую тему   Ответить на тему    Торрент-трекер NNM-Club -> Отечественные сериалы Часовой пояс: GMT + 3
Страница 1 из 1