Классический форум-трекер
canvas not supported
Нас вместе: 4 232 299

Покорители волн / Chasing Mavericks (2012) [720p] WEB-DLRip


 
 
RSS
Начать новую тему   Ответить на тему    Торрент-трекер NNM-Club -> Архив торрентов -> Архив Видео. Кино, Театра
Автор Сообщение
art-61 ®
Стаж: 12 лет 10 мес.
Сообщений: 1094
Ratio: 119.581
Поблагодарили: 143431
100%
Откуда: Санкт-Петербург
russia.gif
Покорители волн / Chasing Mavericks (2012) WEB-DLRip
«Самые опасные волны на планете изменят их навсегда»
Русское название: Покорители волн
Оригинальное название: Chasing Mavericks
Год выпуска: 2012
Производство: США / Fox 2000 Pictures, Walden Media
Жанр: Драма, спорт

Перевод: Дублированный [Лицензия]
Субтитры: Вшитые отключаемые
Язык субтитров: Русский, английский

Дата мировой премьеры: 25 октября 2012
Дата российской премьеры: 8 ноября 2012, «UPI»
Дата выхода DVD релиза: 5 февраля 2013, «Парадиз Медиа»

Режиссер: Майкл Эптед, Кёртис Хэнсон
Продюсер: Кёртис Хэнсон, Брэндон Хупер, Джим Минаган
Актеры: Джерард Батлер, Эбигейл Спенсер, Элизабет Шу, Ливэн Рамбин, Скотт Иствуд, Тейлор Хэндли, Александр Канеллакос, Дженика Бергер, Купер Тимберлайн, Чэннон Роу

Описание фильма:
Серфинг — спорт королей. Не каждый сможет справиться с огромными волнами у побережья Калифорнии. Их называют Мавериксами, они достигают 25 метров в высоту. Хессон не раз покорял стихию, но не раскрыл своего секрета никому. Он дал обещание любимой женщине — больше не рисковать жизнью. Но смелость юного Джей подкупила Хессона. Смогут ли они, глядя смерти в лицо, удержаться на гребне волны?.



Продолжительность: 01:56:28
Качество видео: WEB-DLRip

Видеокодек: MPEG-4 AVC/H.264
Битрейт видео: 3899 Кбит/с
Размер кадра: 1280x690 Кбит/с
Аудио#1: AC3, 6 ch, 448 Кбит/с - русский
Аудио#2: AC3, 6 ch, 384 Кбит/с - английский
Общее
Уникальный идентификатор : 173762191631023901189388828976126394517 (0x82B9617C8822EDF9A87E5CC2F5588095)
Полное имя : E:\Cinema\Pokoriteli.voln.2012.WEBDL.720p.mkv
Формат : Matroska
Версия формата : Version 2
Размер файла : 3,94 Гбайт
Продолжительность : 1 ч. 56 м.
Общий поток : 4827 Кбит/сек
Дата кодирования : UTC 2013-02-12 20:39:01
Программа кодирования : mkvmerge v4.9.1 ('Ich will') сборка от Jul 11 2011 23:53:15
Библиотека кодирования : libebml v1.2.1 + libmatroska v1.1.1

Видео
Идентификатор : 1
Формат : AVC
Формат/Информация : Advanced Video Codec
Профиль формата : High@L3.1
Параметр CABAC формата : Нет
Параметр ReFrames формата : 2 кадра
Идентификатор кодека : V_MPEG4/ISO/AVC
Продолжительность : 1 ч. 56 м.
Битрейт : 3899 Кбит/сек
Ширина : 1280 пикселей
Высота : 690 пикселей
Соотношение сторон : 1,85:1
Режим частоты кадров : Постоянный
Частота кадров : 23,976 кадра/сек
Цветовое пространство : YUV
Субдискретизация насыщенности : 4:2:0
Битовая глубина : 8 бит
Тип развёртки : Прогрессивная
Бит/(Пиксели*Кадры) : 0.184
Размер потока : 3,18 Гбайт (81%)
Язык : English
Default : Да
Forced : Да
Основные цвета : BT.709
Характеристики трансфера : BT.709
Коэффициенты матрицы : BT.709

Аудио #1
Идентификатор : 2
Формат : AC-3
Формат/Информация : Audio Coding 3
Расширение режима : CM (complete main)
Параметр Endianness формата : Big
Идентификатор кодека : A_AC3
Продолжительность : 1 ч. 56 м.
Вид битрейта : Постоянный
Битрейт : 448 Кбит/сек
Каналы : 6 каналов
Расположение каналов : Front: L C R, Side: L R, LFE
Частота : 48,0 КГц
Битовая глубина : 16 бит
Метод сжатия : С потерями
Размер потока : 374 Мбайт (9%)
Заголовок : DD 5.1 @ 448 kbps - Dub, R5
Язык : Russian
Default : Да
Forced : Да

Аудио #2
Идентификатор : 3
Формат : AC-3
Формат/Информация : Audio Coding 3
Расширение режима : CM (complete main)
Параметр Endianness формата : Big
Идентификатор кодека : A_AC3
Продолжительность : 1 ч. 56 м.
Вид битрейта : Постоянный
Битрейт : 384 Кбит/сек
Каналы : 6 каналов
Расположение каналов : Front: L C R, Side: L R, LFE
Частота : 48,0 КГц
Битовая глубина : 16 бит
Метод сжатия : С потерями
Размер потока : 321 Мбайт (8%)
Заголовок : DD 5.1 @ 384 kbps
Язык : English
Default : Нет
Forced : Нет

Текст #1
Идентификатор : 4
Формат : UTF-8
Идентификатор кодека : S_TEXT/UTF8
Идентификатор кодека/Информация : UTF-8 Plain Text
Язык : Russian
Default : Нет
Forced : Нет

Текст #2
Идентификатор : 5
Формат : UTF-8
Идентификатор кодека : S_TEXT/UTF8
Идентификатор кодека/Информация : UTF-8 Plain Text
Язык : English
Default : Нет
Forced : Нет

Меню
00:00:00.000 : en:Chapter 01
00:04:42.000 : en:Chapter 02
00:08:33.000 : en:Chapter 03
00:12:46.000 : en:Chapter 04
00:17:06.000 : en:Chapter 05
00:22:01.000 : en:Chapter 06
00:28:12.000 : en:Chapter 07
00:34:05.000 : en:Chapter 08
00:38:31.000 : en:Chapter 09
00:41:32.000 : en:Chapter 10
00:44:10.000 : en:Chapter 11
00:48:43.000 : en:Chapter 12
00:52:14.000 : en:Chapter 13
00:58:28.000 : en:Chapter 14
01:00:31.000 : en:Chapter 15
01:04:28.000 : en:Chapter 16
01:07:51.000 : en:Chapter 17
01:11:59.000 : en:Chapter 18
01:15:11.000 : en:Chapter 19
01:19:01.000 : en:Chapter 20
01:23:07.000 : en:Chapter 21
01:27:24.000 : en:Chapter 22
01:31:15.000 : en:Chapter 23
01:35:45.000 : en:Chapter 24
01:39:27.000 : en:Chapter 25
01:44:20.000 : en:Chapter 26
01:49:04.000 : en:Chapter 27
01:50:10.000 : en:Chapter 28
Скриншоты:



Время раздачи: 24/7 по возможности
[NNM-Club.ru]_Pokoriteli.voln.2012.WEBDL.720p.mkv.torrent
 Торрент: Платиновая раздача  Зарегистрирован
 
Скачать


Примагнититься
 Зарегистрирован:   13 Фев 2013 02:35:12
 Размер:   3.94 GB  (
 Рейтинг:   4.7 (Голосов: 39)
 Поблагодарили:   135
 Проверка:   Оформление проверено модератором 13 Фев 2013 10:04:59
Как cкачать  ·  Как раздать  ·  Правильно оформить  ·  Поднять ратио!  
steper
Стаж: 13 лет 11 мес.
Сообщений: 181
Ratio: 6.451
Поблагодарили: 994
100%
switzerland.gif
Ну наконец-то с оригинальной дорожкой, спасибо от души!!!
Топик был перенесен из форума Новинки (HD) в форум Архив Видео

Причина переноса: http://nnmclub.to/forum/viewtopic.php?t=620968
Lelya_K
mashinister
Стаж: 14 лет 1 мес.
Сообщений: 117
Ratio: 6.006
100%
русская дорожка очень тихая. приходится всё время увеличивать и убавлять звук, т.к. волны шумят очень громко) не очень комфортно
Показать сообщения:   
Начать новую тему   Ответить на тему    Торрент-трекер NNM-Club -> Архив торрентов -> Архив Видео. Кино, Театра Часовой пояс: GMT + 3
Страница 1 из 1