Классический форум-трекер
canvas not supported
Нас вместе: 4 231 691

Операция «Арго» / Argo (2012) [720p] BDRip


 
 
RSS
Начать новую тему   Ответить на тему    Торрент-трекер NNM-Club -> Зарубежное кино -> Зарубежные Фильмы (HD, FHD)
Автор Сообщение
Zov72 ®
Стаж: 14 лет 1 мес.
Сообщений: 4743
Ratio: 110.504
Поблагодарили: 610744
100%
Откуда: Вольный кабан
wild_hogs.gif
Операция «Арго» / Argo (2012) ВDRip
«Кино для прикрытия»
Русское название: Операция «Арго»
Оригинальное название: Argo
Год выпуска: 2012
Производство: США / GK Films, Smoke House, Warner Bros. Pictures
Жанр: Триллер, Драма
Перевод: Дублированный [лицензия]
Язык субтитров: Русский, Английский
Вид субтитров: Вшитые отключаемые

Дата мировой премьеры: 31 августа 2012
Дата российской премьеры: 8 ноября 2012, «Каро-Премьер»
Дата выхода DVD релиза: 14 февраля 2013, «CP Дистрибуция»,
Дата выхода Blu-Ray релиза: 14 февраля 2013, «CP Дистрибуция»,

Режиссер: Бен Аффлек
Продюсер: Бен Аффлек, Джордж Клуни, Грант Хеслов
Актеры: Бен Аффлек, Брайан Крэнстон, Алан Аркин, Джон Гудмен, Виктор Гарбер, Тейт Донован, Клеа Дюваль, Скут МакНэйри, Рори Кокрейн, Кристофер Денхам

Описание фильма:
4 ноября 1979 г. революция в Иране достигает своего апогея, студенты-исламисты штурмуют посольство США в Тегеране и берут в заложники 52 американца. Но в этом хаосе шестерым удается ускользнуть и найти прибежище в доме канадского посла. Понимая, что их обнаружение и, вероятнее всего, убийство — всего лишь вопрос времени, Тони Мендес, специалист ЦРУ по тайному вывозу людей из страны, предлагает рискованный план безопасной эвакуации. План столь невероятен, что такое бывает только в кино.

Видеоряд от:

Продолжительность: 02:00:22
Качество видео: ВDRip

Видеокодек: MPEG-4 AVC/H.264
Битрейт видео: ~ 7800 Kbit/s
Размер кадра: 1280x534 (2.40:1)
Аудио#1: 48 kHz, AC3, 3/2 (L,C,R,l,r) + LFE ch, ~640.00 kbps (Russian)
Аудио#2: 48 kHz, DTS, 3/2 (L,C,R,l,r) + LFE ch, ~1510.0 kbps (English)

Сэмпл: Скачать
Код:

Общее
Уникальный идентификатор                 : 247755447318484245859281707006130595301 (0xBA63F6A71F1D2D268D4D4E189ED325E5)
Полное имя                               : E:\Загрузка\Operatsiya.Argo.2012.DUAL.BDRip.720p.mkv
Формат                                   : Matroska
Версия формата                           : Version 2
Размер файла                             : 8,36 Гбайт
Продолжительность                        : 2 ч. 0 м.
Общий поток                              : 9943 Кбит/сек
Название фильма                          : Argo (2012) - HQ-ViDEO
Дата кодирования                         : UTC 2013-02-13 09:31:49
Программа кодирования                    : mkvmerge v5.2.1 ('A Far Off Place') built on Feb  6 2012 10:08:15
Библиотека кодирования                   : libebml v1.2.3 + libmatroska v1.3.0

Видео
Идентификатор                            : 1
Формат                                   : AVC
Формат/Информация                        : Advanced Video Codec
Профиль формата                          : High@L4.1
Параметр CABAC формата                   : Да
Параметр ReFrames формата                : 11 кадров
Идентификатор кодека                     : V_MPEG4/ISO/AVC
Продолжительность                        : 2 ч. 0 м.
Битрейт                                  : 7800 Кбит/сек
Ширина                                   : 1280 пикселей
Высота                                   : 534 пикселя
Соотношение сторон                       : 2,40:1
Частота кадров                           : 23,976 кадра/сек
Цветовое пространство                    : YUV
Субдискретизация насыщенности            : 4:2:0
Битовая глубина                          : 8 бит
Тип развёртки                            : Прогрессивная
Бит/(Пиксели*Кадры)                      : 0.476
Размер потока                            : 6,39 Гбайт (76%)
Заголовок                                : Vaippp
Библиотека кодирования                   : x264 core 129 r2245 bc13772
Настройки программы                      : cabac=1 / ref=11 / deblock=1:-3:-3 / analyse=0x3:0x133 / me=umh / subme=11 / psy=1 / psy_rd=1.05:0.00 / mixed_ref=1 / me_range=32 / chroma_me=1 / trellis=2 / 8x8dct=1 / cqm=0 / deadzone=6,6 / fast_pskip=0 / chroma_qp_offset=-2 / threads=12 / lookahead_threads=2 / sliced_threads=0 / nr=0 / decimate=0 / interlaced=0 / bluray_compat=0 / constrained_intra=0 / bframes=9 / b_pyramid=2 / b_adapt=2 / b_bias=0 / direct=3 / weightb=1 / open_gop=0 / weightp=2 / keyint=240 / keyint_min=22 / scenecut=40 / intra_refresh=0 / rc_lookahead=60 / rc=2pass / mbtree=0 / bitrate=7800 / ratetol=1.0 / qcomp=0.75 / qpmin=0 / qpmax=69 / qpstep=4 / cplxblur=20.0 / qblur=0.5 / vbv_maxrate=50000 / vbv_bufsize=50000 / nal_hrd=none / ip_ratio=1.30 / pb_ratio=1.20 / aq=1:0.65
Язык                                     : English
Default                                  : Да
Forced                                   : Нет
Основные цвета                           : BT.709-5, BT.1361, IEC 61966-2-4, SMPTE RP177
Характеристики трансфера                 : BT.709-5, BT.1361
Коэффициенты матрицы                     : BT.709-5, BT.1361, IEC 61966-2-4 709, SMPTE RP177

Аудио #1
Идентификатор                            : 2
Формат                                   : AC-3
Формат/Информация                        : Audio Coding 3
Расширение режима                        : CM (complete main)
Параметр Endianness формата              : Big
Идентификатор кодека                     : A_AC3
Продолжительность                        : 2 ч. 0 м.
Вид битрейта                             : Постоянный
Битрейт                                  : 640 Кбит/сек
Каналы                                   : 6 каналов
Расположение каналов                     : Front: L C R, Side: L R, LFE
Частота                                  : 48,0 КГц
Битовая глубина                          : 16 бит
Метод сжатия                             : С потерями
Размер потока                            : 551 Мбайт (6%)
Заголовок                                : DUB@Blu-Ray_CEE
Язык                                     : Russian
Default                                  : Да
Forced                                   : Да

Аудио #2
Идентификатор                            : 3
Формат                                   : DTS
Формат/Информация                        : Digital Theater Systems
Идентификатор кодека                     : A_DTS
Продолжительность                        : 2 ч. 0 м.
Вид битрейта                             : Постоянный
Битрейт                                  : 1510 Кбит/сек
Каналы                                   : 6 каналов
Расположение каналов                     : Front: L C R, Side: L R, LFE
Частота                                  : 48,0 КГц
Битовая глубина                          : 24 бит
Метод сжатия                             : С потерями
Размер потока                            : 1,27 Гбайт (15%)
Заголовок                                : DTS 5.1 @ 1536 kbps
Язык                                     : English
Default                                  : Нет
Forced                                   : Нет

Текст #1
Идентификатор                            : 4
Формат                                   : UTF-8
Идентификатор кодека                     : S_TEXT/UTF8
Идентификатор кодека/Информация          : UTF-8 Plain Text
Заголовок                                : Forced
Язык                                     : Russian
Default                                  : Да
Forced                                   : Да

Текст #2
Идентификатор                            : 5
Формат                                   : UTF-8
Идентификатор кодека                     : S_TEXT/UTF8
Идентификатор кодека/Информация          : UTF-8 Plain Text
Заголовок                                : Full
Язык                                     : Russian
Default                                  : Нет
Forced                                   : Нет

Текст #3
Идентификатор                            : 6
Формат                                   : UTF-8
Идентификатор кодека                     : S_TEXT/UTF8
Идентификатор кодека/Информация          : UTF-8 Plain Text
Заголовок                                : Forced
Язык                                     : English
Default                                  : Нет
Forced                                   : Нет

Текст #4
Идентификатор                            : 7
Формат                                   : UTF-8
Идентификатор кодека                     : S_TEXT/UTF8
Идентификатор кодека/Информация          : UTF-8 Plain Text
Язык                                     : English
Default                                  : Нет
Forced                                   : Нет

Меню
00:00:00.000                             : en:Chapter 01
00:12:39.759                             : en:Chapter 02
00:19:36.091                             : en:Chapter 03
00:28:59.571                             : en:Chapter 04
00:42:48.607                             : en:Chapter 05
00:50:01.540                             : en:Chapter 06
01:00:00.054                             : en:Chapter 07
01:09:09.520                             : en:Chapter 08
01:19:46.823                             : en:Chapter 09
01:30:14.117                             : en:Chapter 10
01:39:00.851                             : en:Chapter 11
01:51:34.771                             : en:Chapter 12

Скриншоты:



Приятного просмотра
и не забываем говорить СПАСИБО...

Время раздачи: 24/7
до 15 скачавших..
[NNM-Club.ru]_Operatsiya.Argo.2012.DUAL.BDRip.720p.mkv.torrent
 Торрент: Платиновая раздача  Зарегистрирован
 
Скачать


 Зарегистрирован:   13 Фев 2013 12:49:46
 Размер:   8.36 GB  (
 Рейтинг:   4.6 (Голосов: 121)
 Поблагодарили:   552
 Проверка:   Оформление проверено модератором 13 Фев 2013 13:47:01
Как cкачать  ·  Как раздать  ·  Правильно оформить  ·  Поднять ратио!  
evgenik777
Стаж: 14 лет
Сообщений: 33
Ratio: 5.66
100%
Откуда: Москва
russia.gif
Спасибо за сылку на отзыв!
Не достоин он 8-ми гигового скачивания. Но как нить позже под пакет семечек можно.
D1ctator
Стаж: 14 лет 3 мес.
Сообщений: 149
Ratio: 5.995
9.77%
ussr.gif
Насчет всяких там толкований об американской поделке - не правы товарищи.
Вот отзыв - там все правильно сказано:

http://frayner.com/films/operatsiya-argo-obzor.html
stalkerq2
Стаж: 11 лет 4 мес.
Сообщений: 17
Ratio: 2.457
1.69%
haters WANNA hate, lovers gonna love
если вы не можете насладиться картиной и ваш анус щекотит мысль об американской пропаганде, то.. наверное, вы очень ранимый человек и я не буду вас троллить.

кино великолепное, держит у экрана всю длительность фильма.
iamx
Стаж: 16 лет
Сообщений: 6
Ratio: 1.819
100%
russia.gif
рабы отзывов detected, лол
Andrey Lis UA
Стаж: 12 лет
Сообщений: 8
Ratio: 15.93
Раздал: 3.956 TB
100%
ukraine.gif
Очень даже классное кино! Советую посмотреть. Отдельно порадовали авторы диалогов и переводчики. Разговаривают как реальные люди (только без мата =) ), а не строят из себя хрен знает кого, как во многих фильмах... В общем, автору спасибо, хорошая раздача, отличное кино! Ах, да! Арго всем в задницу! =)
Показать сообщения:   
Начать новую тему   Ответить на тему    Торрент-трекер NNM-Club -> Зарубежное кино -> Зарубежные Фильмы (HD, FHD) Часовой пояс: GMT + 3
Страница 1 из 1