Классический форум-трекер
canvas not supported
Нас вместе: 4 232 312

PBS: Американский опыт: (Американское приключение) Биржевый крах 1929 года / The American Experience: The Crash of 1929 (2009) TVRip [Сезон 3: эпизод 5]


 
 
RSS
Начать новую тему   Ответить на тему    Торрент-трекер NNM-Club -> Архив торрентов -> Архив Документалистики и TV
Автор Сообщение
skorpionN ®
Документалист
Стаж: 16 лет 9 мес.
Сообщений: 9497
Ratio: 2534.096
Раздал: 22.35 TB
Поблагодарили: 368596
100%
PBS: Американский опыт: (Американское приключение) Биржевый крах 1929 года / The American Experience: The Crash of 1929 (2009) TVRip [Сезон 3: эпизод 5]
Автор рипа zloy_кeкs

Русское название:PBS: Американский опыт: (Американское приключение) Биржевый крах 1929 года
Оригинальное название: The American Experience: The Crash of 1929
Режиссер / Телекомпания: Эллен Хоуд
Год выпуска: 2009
Жанр: Документальный

Описание:
Этот документальный фильм расскажет нам о биржевом крахе 1929 года, ознаменовавшем собой "официальное" начало Великой Депрессии. С исторической и экономической точки зрения эта короткометражка не представляет из себя ничего значимого, страдает передергиванием фактов, поверхностным отношением к событиям, поэтому никак не стоит относиться к ней серьезно. Но фильм занимателен тем, что практически полностью построен на кадрах кинохроники и весьма живо передает дух времени 20-х годов.

Продолжительность: 00:52:59

Перевод: Одноголосый закадровый, любительский Lisitz

Видеокодек: Xvid
Битрейт видео: ~1704 kbps
Размер кадра: 640x480
Качество видео: TVRip
Аудиокодек: MP3, 2 ch.
Битрейт аудио: 128 kbps
Формат : AVI
Формат/Информация : Audio Video Interleave
Размер файла : 699 Мбайт
Продолжительность : 52 м.
Общий поток : 1844 Кбит/сек
Программа кодирования : VirtualDubMod 1.5.10.3 | www.virtualdub-fr.org || (build 2550/release)
Библиотека кодирования : VirtualDubMod build 2550/release

Видео
Идентификатор : 0
Формат : MPEG-4 Visual
Профиль формата : Advanced Simple@L5
Параметр BVOP формата : 1
Параметр QPel формата : Нет
Параметр GMC формата : Без точки перехода
Параметр матрицы формата : Выборочная
Идентификатор кодека : XVID
Идентификатор кодека/Подсказка : XviD
Продолжительность : 52 м.
Битрейт : 1704 Кбит/сек
Ширина : 640 пикселей
Высота : 480 пикселей
Соотношение сторон : 4:3
Частота кадров : 29,970 кадров/сек
Цветовое пространство : YUV
Субдискретизация насыщенности : 4:2:0
Битовая глубина : 8 бит
Тип развёртки : Прогрессивная
Метод сжатия : С потерями
Бит/(Пиксели*Кадры) : 0.185
Размер потока : 646 Мбайт (92%)
Библиотека кодирования : XviD 1.2.0.dev47 (UTC 2006-11-01)

Аудио
Идентификатор : 1
Формат : MPEG Audio
Версия формата : Version 1
Профиль формата : Layer 3
Режим : Joint stereo
Расширение режима : MS Stereo
Идентификатор кодека : 55
Идентификатор кодека/Подсказка : MP3
Продолжительность : 52 м.
Вид битрейта : Постоянный
Битрейт : 128 Кбит/сек
Каналы : 2 канала
Частота : 48,0 КГц
Метод сжатия : С потерями
Размер потока : 48,5 Мбайт (7%)
Выравнивание : Соединение по промежуткам
Продолжительность промежутка : 33 мс. (1,00 видеокадр)
Время предзагрузки промежутка : 504 мс.
Американский опыт / The American Experience:

Скриншоты:




Время раздачи: 24/7 ( до первых скачавших, перебои со связью бывают,зависит от провайдера)
[NNM-Club.ru]_AE_s03e05_The_Crash_of_1929.avi.torrent
 Торрент: Платиновая раздача  Зарегистрирован
 
Скачать


Примагнититься
 Зарегистрирован:   19 Фев 2013 10:23:02
 Размер:   699 MB  (
 Рейтинг:   5 (Голосов: 10)
 Поблагодарили:   53
 Проверка:   Оформление проверено модератором 19 Фев 2013 14:32:45
Как cкачать  ·  Как раздать  ·  Правильно оформить  ·  Поднять ратио!  
mat1us
Стаж: 15 лет 2 мес.
Сообщений: 105
Ratio: 7.705
Поблагодарили: 870
100%
ukraine.gif
Сколько же фильмов из этой серии если сезонов кажись уже 25
skorpionN ®
Документалист
Стаж: 16 лет 9 мес.
Сообщений: 9497
Ratio: 2534.096
Раздал: 22.35 TB
Поблагодарили: 368596
100%
Эпизоды: 305
Время: 12 дней 17 часов — 18300 мин.
[если смотреть непрерывно 24 часа в сутки]
Топик был перенесен из форума PBS в форум Архив Документалистики и TV

Причина переноса: Нет сида больше 30 дней...
svlesin
Показать сообщения:   
Начать новую тему   Ответить на тему    Торрент-трекер NNM-Club -> Архив торрентов -> Архив Документалистики и TV Часовой пояс: GMT + 3
Страница 1 из 1