Классический форум-трекер
canvas not supported
Нас вместе: 4 205 953

Мулан и Мулан 2 / Mulan and Mulan II (1998 и 2004) BDRip


 
 
RSS
Начать новую тему   Ответить на тему    Торрент-трекер NNM-Club -> Мультфильмы -> Зарубежные Мультфильмы (коллекции, сборники / *логии)
Автор Сообщение
Miheleniya ®
Стаж: 9 лет 10 мес.
Сообщений: 9
Ratio: 81.747
Поблагодарили: 1070
100%
russia.gif
Мулан и Мулан 2 / Mulan and Mulan II (1998 и 2004) BDRip
Русское название: Мулан
Оригинальное название: Mulan
Год выпуска: 1998
Выпущено: США
Режиссер: Тони Бэнкрофт, Бэрри Кук
Жанр: мультфильм, мюзикл, приключения, семейный
В ролях: Эдди Мёрфи, Лиа Салонга, Мигель Феррер, Харви Фирштейн, Фреда, Фо Шен, Джун Форэй, Джеймс Хонг, Мириам Маргулис, Пэт Морита, Марни Никсон
Перевод: Профессиональный (полное дублирование)
Субтитры: Отсутствуют

Описание:
Для великого народа наступили тяжелые времена: на страну напало воинственное племя гуннов. Переодевшись в мужскую одежду, Мулан присоединяется к другим воинам и отправляется в опасный поход к подножию заснеженных гор. Ее сопровождает забавный дракончик Мушу, который больше похож на маленькую собачку, чем на мифическое чудовище.

Пытаясь скрыть тайну, они попадают в забавные ситуации и не подозревают, что их секрет вот - вот раскроется!...



Продолжительность: 01:27:50
Качество видео: BDRip |исходник: Blu-ray 1080p|
Контейнер: AVI
Видео: 704x416 (1.69:1), 23.976 fps, XviD build 65 ~1769 kbps avg, 0.25 bit/pixel
Аудио: 48 kHz, AC3 Dolby Digital, 3/2 (L,C,R,l,r) + LFE ch, ~448.00 kbps avg
Общее
Полное имя : Mulan\Mulan.avi
Формат : AVI
Формат/Информация : Audio Video Interleave
Размер файла : 1,37 Гбайт
Продолжительность : 1 ч. 27 м.
Общий поток : 2227 Кбит/сек
Программа кодирования : VirtualDubMod 1.5.10.2 (build 2540/release)
Библиотека кодирования : VirtualDubMod build 2540/release

Видео
Идентификатор : 0
Формат : MPEG-4 Visual
Профиль формата : Advanced Simple@L5
Параметр BVOP формата : 1
Параметр QPel формата : Нет
Параметр GMC формата : Без точки перехода
Параметр матрицы формата : Выборочная
Идентификатор кодека : XVID
Идентификатор кодека/Подсказка : XviD
Продолжительность : 1 ч. 27 м.
Битрейт : 1770 Кбит/сек
Ширина : 704 пикс.
Высота : 416 пикс.
Соотношение сторон : 1,692
Частота кадров : 23,976 кадр/сек
Цветовое пространство : YUV
Подвыборка цветности : 4:2:0
Битовая глубина : 8 бит
Тип развёртки : Прогрессивная
Метод сжатия : С потерями
Бит/(Пиксели*Кадры) : 0.252
Размер потока : 1,09 Гбайт (79%)
Библиотека кодирования : XviD 65

Аудио
Идентификатор : 1
Формат : AC-3
Формат/Информация : Audio Coding 3
Расширение режима : CM (complete main)
Идентификатор кодека : 2000
Продолжительность : 1 ч. 27 м.
Вид битрейта : Постоянный
Битрейт : 448 Кбит/сек
Канал(ы) : 6 канала(ов)
Расположение каналов : Front: L C R, Side: L R, LFE
Частота : 48,0 КГц
Битовая глубина : 16 бит
Метод сжатия : С потерями
Размер потока : 281 Мбайт (20%)
Выравнивание : Разделение по промежуткам
Продолжительность промежутка : 42 мс. (1,00 видеокадр)
Время предзагрузки промежутка : 500 ms
Скриншоты:

Русское название: Мулан 2
Оригинальное название: Mulan II
Год выпуска: 2004
Выпущено: США
Режиссер: Даррел Руни, Линн Сауферлэнд
Жанр: мультфильм, мюзикл, приключения, семейный
В ролях: Минг-На, Б.Д. Вонг, Марк Моусли, Люси Лью, Харви Фирштейн, Сандра О, Гедде Ватанабе, Лоурен Том, Джерри Тондо, Пэт Морита
Перевод: Профессиональный (полное дублирование)
Субтитры: Отсутствуют

Описание:
Новое увлекательное путешествие с уже знакомыми героями - отважной китайской воительницей Мулан и ее верным другом Ли Шанем. На сей раз им, храбрым победителям монгольских орд, предстоит самая ответственная миссия в жизни. Это... свадьба.

Но, прежде чем Мулан и Ли Шань поженятся, они должны позаботиться и о чужом счастье, доставив трех китайских принцесс их женихам. Легкая задача? Не очень, если вам «помогает» самый легкомысленный дракон в мире Мушу, а коварные монголы уже затевают новые козни!..



Продолжительность: 01:18:41
Качество видео: BDRip |исходник: Blu-ray 1080p|
Контейнер: AVI
Видео: 720x400 (1.80:1), 23.976 fps, XviD build 65 ~2029 kbps avg, 0.29 bit/pixel
Аудио: 48 kHz, AC3 Dolby Digital, 3/2 (L,C,R,l,r) + LFE ch, ~448.00 kbps avg
Общее
Полное имя : Mulan\Mulan_2.avi
Формат : AVI
Формат/Информация : Audio Video Interleave
Размер файла : 1,37 Гбайт
Продолжительность : 1 ч. 18 м.
Общий поток : 2487 Кбит/сек
Программа кодирования : VirtualDubMod 1.5.10.2 (build 2540/release)
Библиотека кодирования : VirtualDubMod build 2540/release

Видео
Идентификатор : 0
Формат : MPEG-4 Visual
Профиль формата : Advanced Simple@L5
Параметр BVOP формата : 1
Параметр QPel формата : Нет
Параметр GMC формата : Без точки перехода
Параметр матрицы формата : Выборочная
Идентификатор кодека : XVID
Идентификатор кодека/Подсказка : XviD
Продолжительность : 1 ч. 18 м.
Битрейт : 2030 Кбит/сек
Ширина : 720 пикс.
Высота : 400 пикс.
Соотношение сторон : 16:9
Частота кадров : 23,976 кадр/сек
Цветовое пространство : YUV
Подвыборка цветности : 4:2:0
Битовая глубина : 8 бит
Тип развёртки : Прогрессивная
Метод сжатия : С потерями
Бит/(Пиксели*Кадры) : 0.294
Размер потока : 1,12 Гбайт (82%)
Библиотека кодирования : XviD 65

Аудио
Идентификатор : 1
Формат : AC-3
Формат/Информация : Audio Coding 3
Расширение режима : CM (complete main)
Идентификатор кодека : 2000
Продолжительность : 1 ч. 18 м.
Вид битрейта : Постоянный
Битрейт : 448 Кбит/сек
Канал(ы) : 6 канала(ов)
Расположение каналов : Front: L C R, Side: L R, LFE
Частота : 48,0 КГц
Битовая глубина : 16 бит
Метод сжатия : С потерями
Размер потока : 252 Мбайт (18%)
Выравнивание : Разделение по промежуткам
Продолжительность промежутка : 42 мс. (1,00 видеокадр)
Время предзагрузки промежутка : 500 ms
Скриншоты:

Автор рипа: Miheleniya

Время раздачи: с 9:00 до 23:00
Мулан Мулан 2 на NNM-club
[NNM-Club.ru]_Mulan.torrent
 Торрент: Платиновая раздача  Зарегистрирован
 
Скачать


Примагнититься
 Зарегистрирован:   06 Мар 2013 17:17:49
 Размер:   2.73 GB  (
 Рейтинг:   4.9 (Голосов: 95)
 Поблагодарили:   380
 Проверка:   Оформление проверено модератором 06 Мар 2013 18:09:50
Как cкачать  ·  Как раздать  ·  Правильно оформить  ·  Поднять ратио!  
Aorum
Стаж: 12 лет 4 мес.
Сообщений: 232
Ratio: 32.031
Поблагодарили: 2446
100%
Откуда: Black Mesa
ussr.gif
Отличный мульт. - спасибо за релиз! Посмотреть - одно удовольствие!

Добавлено спустя 1 минуту 58 секунд:

Просто, ну... - вот люблю хорошие мультфильмы и всё...!

_________________
Я стар, я очень стар, я просто Superstar!
Tigrus
Стаж: 12 лет 1 мес.
Сообщений: 67
Ratio: 4.881
100%
russia.gif
Первый мульт очень понравился. Теперь посмотрим и второй. Спасибо!
Показать сообщения:   
Начать новую тему   Ответить на тему    Торрент-трекер NNM-Club -> Мультфильмы -> Зарубежные Мультфильмы (коллекции, сборники / *логии) Часовой пояс: GMT + 3
Страница 1 из 1