Классический форум-трекер
canvas not supported
Нас вместе: 4 205 734

Фархат: Черный скорпион / Farhat: The Black Scorpion (2 сезон: 1-26 серии из 26) (2009) WEB-DLRip


 
 
RSS
Начать новую тему   Ответить на тему    Торрент-трекер NNM-Club -> Мультфильмы -> Зарубежные Мультсериалы
Автор Сообщение
FedExe ®
Uploader 300+
Стаж: 12 лет 3 мес.
Сообщений: 9668
Ratio: 392.144
Поблагодарили: 946400
100%
Откуда: LoX - living off experien
Фархат: Черный скорпион / Farhat: The Black Scorpion (2 сезон: 1-26 серии из 26) (2009) WEB-DLRip
Русское название: Фархат: Черный скорпион
Оригинальное название: Farhat: The Black Scorpion
Год выпуска: 2009
Жанр: Рисованная анимация, Приключения

Описание:
Прекрасный Восток, изобилие колдовства и тайн, где магия древности тесно переплелась с настоящим, а благородство и зависть гуляют рука об руку. Какие загадки и опасности готовит он? Юный принц Фархат при помощи верных друзей ищет кусочки кристалла Шаримана, чтобы собрать их воедино и освободить из плена родителей. По всем частям света проходит их необыкновенное путешествие, полное колдовства и тайн. Но на каждом шагу подстерегают ловушки коварного демона Эгохана, который готов на все, лишь бы заполучить могущество волшебного кристалла. Удастся ли принцу выйти победителем из этой жестокой и коварной схватки?

Режиссер: Джузеппе Лагана

Продолжительность: ~ 00:25:00
Перевод: Многоголосый закадровый
0+

Видеокодек: DivX 5
Битрейт видео: ~1794 Кбит/с
Размер кадра: 720x400
Качество видео: WEB-DLRip
Аудиокодек: MP3 2.0
Битрейт аудио: 320 Кбит/с
General
Complete name : \Farhat.Chyornyj.Skorpion.(01.seria.iz.26).2009.WEB-DLRip.avi
Format : AVI
Format/Info : Audio Video Interleave
File size : 379 MiB
Duration : 24mn 56s
Overall bit rate : 2 126 Kbps
Writing application : MEncoder version 4.0.0 building on 20100917

Video
ID : 0
Format : MPEG-4 Visual
Format profile : Simple@L1
Format settings, BVOP : No
Format settings, QPel : No
Format settings, GMC : No warppoints
Format settings, Matrix : Default (H.263)
Codec ID : DX50
Codec ID/Hint : DivX 5
Duration : 24mn 56s
Bit rate : 1 794 Kbps
Width : 720 pixels
Height : 400 pixels
Display aspect ratio : 16:9
Frame rate : 25.000 fps
Color space : YUV
Chroma subsampling : 4:2:0
Bit depth : 8 bits
Scan type : Progressive
Compression mode : Lossy
Bits/(Pixel*Frame) : 0.249
Stream size : 320 MiB (84%)
Writing library : DigiArty AV Encoder Core

Audio
ID : 1
Format : MPEG Audio
Format version : Version 1
Format profile : Layer 3
Codec ID : 55
Codec ID/Hint : MP3
Duration : 24mn 56s
Bit rate mode : Constant
Bit rate : 320 Kbps
Channel(s) : 2 channels
Sampling rate : 44.1 KHz
Compression mode : Lossy
Stream size : 57.1 MiB (15%)
Alignment : Aligned on interleaves
Interleave, duration : 26 ms (0.65 video frame)
Interleave, preload duration : 522 ms
Writing library : LAME3.98.4
Скриншоты:

Фархат: Принц Персии / Farhat: The Prince of the Desert (1 сезон: 1-26 серии из 26) (2004) DVDRip
Время раздачи: 24/7 по мере возможности... для noiprocs
[NNM-Club.ru]_[video] Farhat CHernyiy skorpion Farhat The Black Scorpion (2 sezon 1-26 serii iz 26) (2009) WEB-DLRip.torrent
 Торрент: Платиновая раздача  Зарегистрирован
 
Скачать


Примагнититься
 Зарегистрирован:   09 Мар 2013 15:40:05
 Размер:   9.59 GB  (
 Рейтинг:   4.7 (Голосов: 21)
 Поблагодарили:   79
 Проверка:   Оформление проверено модератором 09 Мар 2013 21:14:08
Как cкачать  ·  Как раздать  ·  Правильно оформить  ·  Поднять ратио!  

_________________

Ну и конечно, данный материал выложен исключительно для ознакомления. После просмотра Вы обязаны удалить все файлы, отформатировать жесткий диск, разбить его молотком, облить кислотой и сжечь остатки в микроволновке.
Показать сообщения:   
Начать новую тему   Ответить на тему    Торрент-трекер NNM-Club -> Мультфильмы -> Зарубежные Мультсериалы Часовой пояс: GMT + 3
Страница 1 из 1