Классический форум-трекер
canvas not supported
Нас вместе: 4 232 304

Нечто / The Thing From Another World (1951) DVDRip


Страницы:  1, 2  След. 
 
RSS
Начать новую тему   Ответить на тему    Торрент-трекер NNM-Club -> Классика кино и Старые фильмы до 90-х -> Зарубежная Классика (SD)
Автор Сообщение
futura3000 ®
Uploader 100+
Стаж: 16 лет 6 мес.
Сообщений: 5676
Ratio: 328.447
Поблагодарили: 22069
100%
Нечто / The Thing From Another World (1951) DVDRip
Год выпуска: 1951
Жанр: Фантастика, Ужасы
Производство: США

Описание: Члены военной исследовательской станции обнаруживают летающую тарелку, вмерзшую в арктический лед. Они неосмотрительно забирают замерзшее тело единственного найденного на борту существа в лагерь. Когда тело оттаивает, инопланетное Нечто внезапно оживает и начинает убивать всех подряд, выпивая кровь людей. Хотя инопланетянин похож на человека, он обладает необычной силой, смертоносен и практически неуязвим для обычных типов оружия. Нечто всегда инстинктивно знает лучший маршрут через лабиринт коридоров и нападает только на одинокого человека. Безумный станционный врач, одержимый жаждой знаний, призывает людей захватить Нечто живьем, защищая инопланетянина от любого вреда и постоянно дезинформируя окружающих. Начальник экспедиции логично полагает, что «хороший монстр — мертвый монстр». Людям придется сражаться не только с чудовищем, но и друг с другом. Мистерия кровавых убийств нагнетает ужас среди полярников и зрителей фильма…

Режиссер: Кристиан Найби, Ховард Хоукс
Актеры: Маргарет Шеридан, Кеннет Тоби, Роберт Корнтуэйт, Дуглас Спенсер, Джеймс Янг, Дьюи Мартин, Роберт Николс, Уильям Селф, Эдуард Франц, Сэлли Крейтон

Продолжительность: 01:26:42
Качество видео: DVDRip
Перевод:Закадровый двуголосый
Ограничения: 12+


Дата мировой премьеры: 6 апреля 1951
Дата выхода DVD релиза: 29 января 2009, «Мьюзик-Трейд»
Видеокодек: XviD
Битрейт видео: ~ 2044 Кбит/c
Размер кадра: 640 x 464
Аудио:
#1: MP3, 2 ch, 128 Кбит/с (Русский)
#2: MP3, 2 ch, 128 Кбит/с (Английский)
Код: выделить все

General
Complete name                    : D:\ПЛЕЕР IconBIT\The Thing From Another World (Нечто).avi
Format                           : AVI
Format/Info                      : Audio Video Interleave
File size                        : 1.40 GiB
Duration                         : 1h 26mn
Overall bit rate                 : 2 314 Kbps
Writing application              : VirtualDubMod 1.5.10.2 (build 2540/release)
Writing library                  : VirtualDubMod build 2540/release

Video
ID                               : 0
Format                           : MPEG-4 Visual
Format profile                   : Advanced Simple@L5
Format settings, BVOP            : 2
Format settings, QPel            : No
Format settings, GMC             : No warppoints
Format settings, Matrix          : Default (H.263)
Muxing mode                      : Packed bitstream
Codec ID                         : XVID
Codec ID/Hint                    : XviD
Duration                         : 1h 26mn
Bit rate                         : 2 044 Kbps
Width                            : 640 pixels
Height                           : 464 pixels
Display aspect ratio             : 1.379
Frame rate                       : 23.976 fps
Color space                      : YUV
Chroma subsampling               : 4:2:0
Bit depth                        : 8 bits
Scan type                        : Progressive
Compression mode                 : Lossy
Bits/(Pixel*Frame)               : 0.287
Stream size                      : 1.24 GiB (88%)
Writing library                  : XviD 1.2.0.dev47 (UTC 2006-11-01)

Audio #1
ID                               : 1
Format                           : MPEG Audio
Format version                   : Version 1
Format profile                   : Layer 3
Mode                             : Joint stereo
Mode extension                   : MS Stereo
Codec ID                         : 55
Codec ID/Hint                    : MP3
Duration                         : 1h 26mn
Bit rate mode                    : Constant
Bit rate                         : 128 Kbps
Channel(s)                       : 2 channels
Sampling rate                    : 48.0 KHz
Compression mode                 : Lossy
Stream size                      : 79.4 MiB (6%)
Alignment                        : Aligned on interleaves
Interleave, duration             : 42 ms (1.00 video frame)
Interleave, preload duration     : 504 ms

Audio #2
ID                               : 2
Format                           : MPEG Audio
Format version                   : Version 1
Format profile                   : Layer 3
Mode                             : Joint stereo
Mode extension                   : MS Stereo
Codec ID                         : 55
Codec ID/Hint                    : MP3
Duration                         : 1h 26mn
Bit rate mode                    : Constant
Bit rate                         : 128 Kbps
Channel(s)                       : 2 channels
Sampling rate                    : 48.0 KHz
Compression mode                 : Lossy
Stream size                      : 79.4 MiB (6%)
Alignment                        : Aligned on interleaves
Interleave, duration             : 42 ms (1.00 video frame)
Interleave, preload duration     : 504 ms
Скриншоты:


Время раздачи: 24/7
[NNMClub.to]_The Thing From Another World.torrent
 Торрент: Платиновая раздача  Зарегистрирован
 
Скачать


Примагнититься
 Зарегистрирован:   03 Апр 2017 15:48:57
 Размер:   1.36 GB  (
 Рейтинг:   4.7 (Голосов: 71)
 Поблагодарили:   277
 Проверка:   Оформление проверено модератором 03 Апр 2017 16:07:54
Как cкачать  ·  Как раздать  ·  Правильно оформить  ·  Поднять ратио!  
Гость
Здорово! Давно искал этот фильм. Спасибо большое.
willamette
Стаж: 17 лет
Сообщений: 20
Ratio: 7.462
Поблагодарили: 224
31.28%
russia.gif
подбавьте газку пожалуйста!

_________________

Коляны4
Стаж: 13 лет 10 мес.
Сообщений: 217
Ratio: 65.959
Раздал: 11.03 TB
Поблагодарили: 5129
100%
russia.gif
давно искал, спс.
LexxTagan
 
Стаж: 13 лет 8 мес.
Сообщений: 76
Ratio: 41.95
100%
witch.png
подбавьте газку пожалуйста!
-=Alex=-
Стаж: 14 лет 5 мес.
Сообщений: 440
Ratio: 28.955
100%
russia.gif
Дайте скачать!
artemka0882
Стаж: 13 лет 1 мес.
Сообщений: 10
Ratio: 1.977
1.9%
good
oleg-lotus
Стаж: 13 лет 5 мес.
Сообщений: 549
Ratio: 3.605
100%
Откуда: Odessa
ukraine.gif
С этого "нечто" всё и началось...)
Спасибо за классику!
SKVSM
Покровитель талантов
Uploader 100+ Реставратор
Стаж: 13 лет 6 мес.
Сообщений: 2012
Ratio: 557.708
Поблагодарили: 34861
100%
nnm-club.gif
NorthOn
 
Админ
Стаж: 17 лет 8 мес.
Сообщений: 15744
Ratio: 952.281
Поблагодарили: 14995
100%
nnm-club.gif
SKVSM
Респект за реставрацию!

_________________
Либо я найду путь, либо проложу его...
Chingachguk
Стаж: 13 лет 11 мес.
Сообщений: 126
Ratio: 4.021
100%
ukraine.gif
Спасибо.я и не знал что есть версия 1951 года.

_________________
БП Sirtec 650W (HP-650-G14S); GigaByte GA-Z68A-D3H-B3; Intel Core i5 2400; Zalman CNPS5X;Asus Radeon HD7870 DC II 2048MB GDDR5 ; 2x4Gb Samsung ozu; Windows 7 x-64.
Б.-Б.
Олигарх+
Стаж: 12 лет 11 мес.
Сообщений: 853
Ratio: 54.875
Раздал: 53.11 TB
Поблагодарили: 1148
100%
Откуда: Владивосток
ussr.gif
Chingachguk писал(а): Перейти к сообщению
Спасибо.я и не знал что есть версия 1951 года.

Знал бы весь ужас который я пережил от второй (1982) версии фильма, знал бы и про 1951-ую версию. Самое смешное, что без этого не понять шутки про Эрика Картмана 2007 года. Кстати, многие так и не понимают.
Skiph
Стаж: 14 лет 11 мес.
Сообщений: 308
Ratio: 5.542
Поблагодарили: 3
100%
russia.gif
Фильм не понравился.Скучноватый. Хуже , чем версия 1982 и даже 2011 годов.
Dmitry-13
Стаж: 11 лет 8 мес.
Сообщений: 13
Ratio: 8.777
100%
russia.gif
спасибо :респект:
saintstalker
Стаж: 14 лет 3 мес.
Сообщений: 386
Ratio: 2.876
16.82%
russia.gif
Не акти , 82год намного интересней
Показать сообщения:   
Начать новую тему   Ответить на тему    Торрент-трекер NNM-Club -> Классика кино и Старые фильмы до 90-х -> Зарубежная Классика (SD) Часовой пояс: GMT + 3
Страницы:  1, 2  След.
Страница 1 из 2