Классический форум-трекер
canvas not supported
Нас вместе: 4 166 207

Barry Goudreau - Barry Goudreau (1980) Reissue /1996, Razor & Tie/ [FLAC|Lossless]<Classical Rock>


 
 
RSS
Начать новую тему   Ответить на тему    Торрент-трекер NNM-Club -> Архив торрентов -> Архив Музыки
Автор Сообщение
PlaNed ®
Стаж: 9 лет 8 мес.
Сообщений: 1360
Ratio: 1036.98
Поблагодарили: 70646
20.79%
Откуда: The Net!
bulgaria.gif
Barry Goudreau - Barry Goudreau (1980) Reissue 1996
Год: 1996 ( Org LP 1980 )
Жанр: Classical Rock
Издатель: Razor & Tie Entertainment Inc {2104-2}
Страна изготовитель: USA

Продолжительность: 00:33:00

Кодек: FLAC
Битрейт: Lossless
Источник: Web

Барри Гудро (Barry Goudreau), родился 29 ноября 1951 года. наиболее известен как первый гитарист группы "Boston"

Треклист:

01. Hard Luck [03:39]
02. Nothin' To Lose [04:01]
03. What's A Fella To Do? [04:30]
04. Mean Woman Blues [03:55]
05. Leavin' Tonight [03:26]
06. Dreams [03:32]
07. Life Is What We Make It [03:11]
08. Sailin' Away [01:49]
09. Cold Cold World [04:57]
Код: выделить все

EAC extraction logfile from 10. March 2007, 16:49 for CD
Barry Goudreau / Barry Goudreau

Used drive  : LITE-ON COMBO LTC-48161H   Adapter: 2  ID: 0
Read mode   : Secure with NO C2, accurate stream, disable cache
Read offset correction : 6
Overread into Lead-In and Lead-Out : No

Used output format : G:\Program Files\FLAC\flac.exe   (User Defined Encoder)
                     32 kBit/s
                     Additional command line options : -V -8 -T "artist=%a" -T "title=%t" -T "album=%g" -T "date=%y" -T "tracknumber=%n" -T "genre=%m" -T "COMMENT=EAC Flac 1.1.3.b" %s

Other options      :
    Fill up missing offset samples with silence : Yes
    Delete leading and trailing silent blocks : No
    Native Win32 interface for Win NT & 2000

Track  1
     Filename K:\Barry Goudreau & Brad Delp Projects\Barry Goudreau - Barry Goudreau (1980) [Flac] (1996 RE-Issue)\01 - Hard Luck.wav

     Pre-gap length  0:00:02.00

     Peak level 100.0 %
     Track quality 100.0 %
     Test CRC C8F3C769
     Copy CRC C8F3C769
     Copy OK

Track  2
     Filename K:\Barry Goudreau & Brad Delp Projects\Barry Goudreau - Barry Goudreau (1980) [Flac] (1996 RE-Issue)\02 - Nothin' To Lose.wav

     Pre-gap length  0:00:00.03

     Peak level 100.0 %
     Track quality 100.0 %
     Test CRC 9ED207E1
     Copy CRC 9ED207E1
     Copy OK

Track  3
     Filename K:\Barry Goudreau & Brad Delp Projects\Barry Goudreau - Barry Goudreau (1980) [Flac] (1996 RE-Issue)\03 - What's A Fella To Do .wav

     Pre-gap length  0:00:00.03

     Peak level 99.6 %
     Track quality 100.0 %
     Test CRC D1A80C0A
     Copy CRC D1A80C0A
     Copy OK

Track  4
     Filename K:\Barry Goudreau & Brad Delp Projects\Barry Goudreau - Barry Goudreau (1980) [Flac] (1996 RE-Issue)\04 - Mean Woman Blues.wav

     Pre-gap length  0:00:00.02

     Peak level 100.0 %
     Track quality 100.0 %
     Test CRC 9E67F21A
     Copy CRC 9E67F21A
     Copy OK

Track  5
     Filename K:\Barry Goudreau & Brad Delp Projects\Barry Goudreau - Barry Goudreau (1980) [Flac] (1996 RE-Issue)\05 - Leavin' Tonight.wav

     Pre-gap length  0:00:00.03

     Peak level 100.0 %
     Track quality 100.0 %
     Test CRC 0359A5AF
     Copy CRC 0359A5AF
     Copy OK

Track  6
     Filename K:\Barry Goudreau & Brad Delp Projects\Barry Goudreau - Barry Goudreau (1980) [Flac] (1996 RE-Issue)\06 - Dreams.wav

     Pre-gap length  0:00:00.02

     Peak level 100.0 %
     Track quality 100.0 %
     Test CRC 5A0EAE7A
     Copy CRC 5A0EAE7A
     Copy OK

Track  7
     Filename K:\Barry Goudreau & Brad Delp Projects\Barry Goudreau - Barry Goudreau (1980) [Flac] (1996 RE-Issue)\07 - Life Is What We Make It.wav

     Pre-gap length  0:00:00.03

     Peak level 98.9 %
     Track quality 100.0 %
     Test CRC B4B9B7D2
     Copy CRC B4B9B7D2
     Copy OK

Track  8
     Filename K:\Barry Goudreau & Brad Delp Projects\Barry Goudreau - Barry Goudreau (1980) [Flac] (1996 RE-Issue)\08 - Sailin' Away.wav

     Pre-gap length  0:00:00.03

     Peak level 41.3 %
     Track quality 100.0 %
     Test CRC 857C7EB1
     Copy CRC 857C7EB1
     Copy OK

Track  9
     Filename K:\Barry Goudreau & Brad Delp Projects\Barry Goudreau - Barry Goudreau (1980) [Flac] (1996 RE-Issue)\09 - Cold Cold World.wav

     Pre-gap length  0:00:00.02

     Peak level 99.9 %
     Track quality 100.0 %
     Test CRC 4A550266
     Copy CRC 4A550266
     Copy OK

No errors occured

End of status report
Код: выделить все

-----------------------

DON'T MODIFY THIS FILE

-----------------------

PERFORMER: auCDtect Task Manager, ver. 1.5.1RC6 build 1.5.1.7
Copyright (c) 2008-2010 y-soft. All rights reserved
http://y-soft.org

ANALYZER: auCDtect: CD records authenticity detector, version 0.8.2
Copyright (c) 2004 Oleg Berngardt. All rights reserved.
Copyright (c) 2004 Alexander Djourik. All rights reserved.

FILE: 09 - Cold Cold World.flac
  Size: 35300338 Hash: AEE70399BDA59FCF47354B93B4E68AA5 Accuracy: -m0
  Conclusion: CDDA 100%
  Signature: 1541428AFB08898F76306E441B9FD21BC510D666
FILE: 08 - Sailin' Away.flac
  Size: 10761887 Hash: 50D952BCF0F630BBE2A0F8B0C42500BD Accuracy: -m0
  Conclusion: CDDA 100%
  Signature: 952BBC08B5B99DB530635BDFCE5017A43207E031
FILE: 07 - Life Is What We Make It.flac
  Size: 24608793 Hash: 288E772E73F9A11AC2DB953A9190CBDA Accuracy: -m0
  Conclusion: CDDA 100%
  Signature: 0225AA631700E6192F742B35608D18FA3280FF07
FILE: 06 - Dreams.flac
  Size: 25928333 Hash: F79EA43E2285505825C1FCEC2B28C687 Accuracy: -m0
  Conclusion: CDDA 100%
  Signature: 895B73F2C30EE577925BF1FDAFD9EA05FC21239B
FILE: 05 - Leavin' Tonight.flac
  Size: 25316380 Hash: AF2C4AB0E245C7992CFFC0A5F2AE7EDB Accuracy: -m0
  Conclusion: CDDA 100%
  Signature: F21B481C2B0D19AE98DD6CDDF2D9B867006C1281
FILE: 04 - Mean Woman Blues.flac
  Size: 29702585 Hash: 0C20D85A89C6472FF7B77164BD6D8124 Accuracy: -m0
  Conclusion: CDDA 100%
  Signature: B8396D22CF9879C7E2DD65AC6A944CE2D7F2D630
FILE: 03 - What's A Fella To Do .flac
  Size: 32088820 Hash: 41B6B52D00D49F215108B42427127B0C Accuracy: -m0
  Conclusion: CDDA 100%
  Signature: C1BC946AB8104F6D6BB094D1207BFFC0B29BDCD7
FILE: 02 - Nothin' To Lose.flac
  Size: 28870859 Hash: C87EE2EB7A689594A63B97BBAB33D2E9 Accuracy: -m0
  Conclusion: CDDA 100%
  Signature: 739B8E887BD348B38054ABADB5B8E98D564C36A6
FILE: 01 - Hard Luck.flac
  Size: 26952521 Hash: F2F923D72269962CBA03A4B0A7114497 Accuracy: -m0
  Conclusion: CDDA 100%
  Signature: 0D6A4693A1E4B59B3E8525082DD7722262E53E2C
[NNM-Club.ru]_Barry Goudreau - Barry Goudreau (1996).torrent
 Торрент:   Зарегистрирован
 
Зарегистрируйтесь и скачайте торрент!
19.4 KB

 Зарегистрирован:   20 Мар 2013 21:13:24
 Размер:   233 MB  (
 Рейтинг:    (Голосов: 6)
 Поблагодарили:   23
 Проверка:   Оформление проверено модератором 21 Мар 2013 13:43:54
Как cкачать  ·  Как раздать  ·  Правильно оформить  ·  Поднять ратио!  
Топик был перенесен из форума Rock (Lossless) в форум Архив Музыки

Причина переноса: Длительное отсутствие сида на протяжении более 6 месяцев.

Исправил релиз - напиши ЛС chaosman1986, дав ссылку на релиз.
Если нет ответа 24 часа - нажми на кнопку "Обратить внимание модераторов".
Показать сообщения:   
Начать новую тему   Ответить на тему    Торрент-трекер NNM-Club -> Архив торрентов -> Архив Музыки Часовой пояс: GMT + 3
Страница 1 из 1