Классический форум-трекер
canvas not supported
Нас вместе: 4 210 865

Властелин колец: Братство кольца / The Lord of the Rings: The Fellowship of the Ring (2001) BDRip [1080p] [Режиссёрская версия / Director's Cut] [hand made 60fps]


Страницы:  1, 2, 3  След. 
 
RSS
Начать новую тему   Ответить на тему    Торрент-трекер NNM-Club -> Остальное -> hand made * video
Автор Сообщение
kryl1411 ®
Стаж: 11 лет
Сообщений: 487
Ratio: 75.606
Раздал: 31.45 TB
Поблагодарили: 25239
100%
russia.gif
Властелин колец: Братство кольца / The Lord of the Rings: The Fellowship of the Ring (2001) BDRip [1080p] [Режиссёрская версия / Director's Cut] [hand made 60fps]
«Power can be held in the smallest of things...»

Русское название: Властелин колец: Братство кольца
Оригинальное название: The Lord of the Rings: The Fellowship of the Ring
Год выпуска: 2001
Производство: Новая Зеландия, США
Жанр: Фэнтези, боевик, драма, приключения
Перевод:
Профессиональный - Дубляж + вставки Позитив-Мультимедиа на расширенные места
Профессиональный (многоголосый закадровый) - Позитив-Мультимедиа
Профессиональный (многоголосый закадровый) - Киномания/Супербит-СРИ|
Авторский (одноголосый закадровый) - А.Гаврилов
Авторский (одноголосый закадровый) - С.Рябов

Дата мировой премьеры: 10 декабря 2001
Дата Российской премьеры: 7 февраля 2002, «Каро-Премьер»
Дата выхода DVD релиза: 3 февраля 2011, «CP-Digital»
Дата выхода Blu-Ray релиза: 6 апреля 2010, «Юниверсал Пикчерс Рус»
Режиссер: Питер Джексон
Продюсер: Питер Джексон, Барри М. Осборн, Тим Сандерс
Актеры: Элайджа Вуд, Шон Эстин, Вигго Мортенсен, Иэн МакКеллен, Доминик Монахэн, Билли Бойд, Шон Бин, Орландо Блум, Джон Рис-Дэвис, Кристофер Ли
Описание фильма:
Сказания о Средиземье — это хроника Великой войны за Кольцо, войны, длившейся не одну тысячу лет. Тот, кто владел Кольцом, получал власть над всеми живыми тварями, но был обязан служить злу.
Тихая деревня, где живут хоббиты. Волшебник Гэндальф, придя на 111-й день рождения к своему старому другу Бильбо Бэггинсу, начинает вести разговор о кольце, которое Бильбо нашел много лет назад. Это кольцо принадлежало когда-то темному властителю Средиземья Саурону, и оно дает большую власть своему обладателю. Теперь Саурон хочет вернуть себе власть над Средиземьем. Бильбо отдает найденное кольцо своему племяннику Фродо, который пытается научиться справляться с тем страшным могуществом, которое дает ему кольцо…
СКАЧАТЬ
Продолжительность: 03:48:17
Качество видео: BDRip
Перед тем , как качать основной файл , скачивайте сэмпл , для проверки воспроизведения данного релиза на вашем оборудовании !!!
Сэмпл качайте с sendfile.su
Второй сэмпл залит на mail , 3 минуты 606mb.
http://files.mail.ru/D22EB89C2E8740A397AF06A086EBB9DC


Writing application : mkvmerge v3.4.0 ('Rapunzel') сборка от May 15 2010 09:38:20
Writing library : libebml v0.8.0 + libmatroska v0.9.0


Video
ID : 1
Format : AVC
Format/Info : Advanced Video Codec
Format profile : High@L4.1
Format settings, CABAC : Yes
Format settings, ReFrames : 5 frames
Codec ID : V_MPEG4/ISO/AVC
Bit rate : 22.0 Mbps
Width : 1 920 pixels
Height : 800 pixels
Display aspect ratio : 2.40:1
Frame rate mode : Variable
Original frame rate : 59.940 fps
Color space : YUV
Chroma subsampling : 4:2:0
Bit depth : 8 bits
Scan type : Progressive
Bits/(Pixel*Frame) : 0.239
Writing library : x264 core 129 r2245 bc13772
Encoding settings : cabac=1 / ref=5 / deblock=1:-3:-3 / analyse=0x3:0x133 / me=esa / subme=10 / psy=1 / psy_rd=1.00:0.00 / mixed_ref=1 / me_range=30 / chroma_me=1 / trellis=2 / 8x8dct=1 / cqm=0 / deadzone=21,11 / fast_pskip=1 / chroma_qp_offset=-2 / threads=12 / lookahead_threads=2 / sliced_threads=0 / nr=0 / decimate=1 / interlaced=0 / bluray_compat=0 / constrained_intra=0 / bframes=8 / b_pyramid=2 / b_adapt=2 / b_bias=0 / direct=3 / weightb=1 / open_gop=0 / weightp=2 / keyint=599 / keyint_min=59 / scenecut=40 / intra_refresh=0 / rc_lookahead=60 / rc=2pass / mbtree=1 / bitrate=22003 / ratetol=1.0 / qcomp=0.60 / qpmin=0 / qpmax=69 / qpstep=4 / cplxblur=20.0 / qblur=0.5 / ip_ratio=1.40 / aq=1:1.00
Language : English
Default : No
Forced : No

Audio #1
ID : 2
Format : AC-3
Format/Info : Audio Coding 3
Mode extension : CM (complete main)
Format settings, Endianness : Big
Codec ID : A_AC3
Duration : 3h 48mn
Bit rate mode : Constant
Bit rate : 448 Kbps
Channel(s) : 6 channels
Channel positions : Front: L C R, Side: L R, LFE
Sampling rate : 48.0 KHz
Bit depth : 16 bits
Compression mode : Lossy
Stream size : 732 MiB (2%)
Title : Дублированный+Вставки Позитив-Мультимедия
Language : Russian
Default : No
Forced : No

Audio #2
ID : 3
Format : AC-3
Format/Info : Audio Coding 3
Mode extension : CM (complete main)
Format settings, Endianness : Big
Codec ID : A_AC3
Duration : 3h 48mn
Bit rate mode : Constant
Bit rate : 448 Kbps
Channel(s) : 6 channels
Channel positions : Front: L C R, Side: L R, LFE
Sampling rate : 48.0 KHz
Bit depth : 16 bits
Compression mode : Lossy
Stream size : 732 MiB (2%)
Title : многоголосый Позитив-Мультимедия
Language : Russian
Default : No
Forced : No

Audio #3
ID : 4
Format : AC-3
Format/Info : Audio Coding 3
Mode extension : CM (complete main)
Format settings, Endianness : Big
Codec ID : A_AC3
Duration : 3h 48mn
Bit rate mode : Constant
Bit rate : 448 Kbps
Channel(s) : 6 channels
Channel positions : Front: L C R, Side: L R, LFE
Sampling rate : 48.0 KHz
Bit depth : 16 bits
Compression mode : Lossy
Stream size : 732 MiB (2%)
Title : многоголосый SRI
Language : Russian
Default : No
Forced : No

Audio #4
ID : 5
Format : AC-3
Format/Info : Audio Coding 3
Mode extension : CM (complete main)
Format settings, Endianness : Big
Codec ID : A_AC3
Duration : 3h 48mn
Bit rate mode : Constant
Bit rate : 448 Kbps
Channel(s) : 6 channels
Channel positions : Front: L C R, Side: L R, LFE
Sampling rate : 48.0 KHz
Bit depth : 16 bits
Compression mode : Lossy
Stream size : 732 MiB (2%)
Title : Гаврилов
Language : Russian
Default : No
Forced : No

Audio #5
ID : 6
Format : AC-3
Format/Info : Audio Coding 3
Mode extension : CM (complete main)
Format settings, Endianness : Big
Codec ID : A_AC3
Duration : 3h 48mn
Bit rate mode : Constant
Bit rate : 448 Kbps
Channel(s) : 6 channels
Channel positions : Front: L C R, Side: L R, LFE
Sampling rate : 48.0 KHz
Bit depth : 16 bits
Compression mode : Lossy
Stream size : 732 MiB (2%)
Title : Рябов
Language : Russian
Default : No
Forced : No
Видеокодек: MPEG-4 AVC/H.264
Битрейт видео: 22.0 Mbps
Размер кадра: 1920 x 800 (2.400)
Аудиокодек: AC3, 6ch, 48.0 KHz
Аудио 1: 448 Kbps, 6ch - Дубляж + вставки Позитив-Мультимедиа на расширенные места
Аудио 2: 448 Kbps, 6ch - Позитив-Мультимедиа
Аудио 3: 448 Kbps, 6ch - Киномания/Супербит-СРИ|
Аудио 4: 448 Kbps, 6ch - А.Гаврилов
Аудио 5: 448 Kbps, 6ch - С.Рябов

Скриншоты:




Время раздачи: До пяти сидов . . .
 Торрент: Платиновая раздача  Зарегистрирован
 
Скачать


Примагнититься
 Зарегистрирован:   23 Мар 2013 13:27:46
 Размер:   38.7 GB  (
 Рейтинг:   4.9 (Голосов: 226)
 Поблагодарили:   667
 Проверка:   Оформление проверено модератором 23 Мар 2013 17:29:13
Как cкачать  ·  Как раздать  ·  Правильно оформить  ·  Поднять ратио!  
izomsk
Стаж: 12 лет 11 мес.
Сообщений: 764
Ratio: 45.475
Раздал: 34.16 TB
Поблагодарили: 38806
100%
russia.gif
Спасибо!

_________________
Бесшумный компьютер для кодирования, музыки и игр сделал себе сам...
kryl1411 ®
Стаж: 11 лет
Сообщений: 487
Ratio: 75.606
Раздал: 31.45 TB
Поблагодарили: 25239
100%
russia.gif
izomsk писал(а): Перейти к сообщению
Спасибо!

Пожалуйста ...
pigmalion77
Стаж: 11 лет 4 мес.
Сообщений: 23
Ratio: 74.849
Поблагодарили: 183
100%
haiti.gif
Можешь все три части в таком же формате выложить, только с отдельными звуковыми дорожками?
kryl1411 ®
Стаж: 11 лет
Сообщений: 487
Ratio: 75.606
Раздал: 31.45 TB
Поблагодарили: 25239
100%
russia.gif
pigmalion77 писал(а): Перейти к сообщению
Можешь все три части в таком же формате выложить, только с отдельными звуковыми дорожками?

В смысле с отдельными звуковыми дорожками ?
Danny-84
Стаж: 12 лет
Сообщений: 65
Ratio: 29.216
100%
russia.gif
kryl1411 сделай пожалуйста семпл подлинее и если можешь по динамчней сюжет подбери...

А 2-ая и 3-ая часть в таком качестве намечается?
kryl1411 ®
Стаж: 11 лет
Сообщений: 487
Ratio: 75.606
Раздал: 31.45 TB
Поблагодарили: 25239
100%
russia.gif
Danny-84 писал(а): Перейти к сообщению
kryl1411 сделай пожалуйста семпл подлинее и если можешь по динамчней сюжет подбери...

А 2-ая и 3-ая часть в таком качестве намечается?

Залил , смотри в дополнительно ..
Другие части под вопросом , так как нет нормального исходника ....
Danny-84
Стаж: 12 лет
Сообщений: 65
Ratio: 29.216
100%
russia.gif
kryl1411 писал(а): Перейти к сообщению
Danny-84 писал(а): Перейти к сообщению
kryl1411 сделай пожалуйста семпл подлинее и если можешь по динамчней сюжет подбери...

А 2-ая и 3-ая часть в таком качестве намечается?

Залил , смотри в дополнительно ..
Другие части под вопросом , так как нет нормального исходника ....


Спасибо
art777nn
Стаж: 9 лет 9 мес.
Сообщений: 13
Ratio: 3.831
100%
kryl1411
Большое спасибо за режиссёрскую версию и 1080р :НГ_прыжок:
Gvozdika2
Стаж: 14 лет 4 мес.
Сообщений: 18
Ratio: 70.196
100%
russia.gif
Спасибо!
kiloka
Стаж: 14 лет 2 мес.
Сообщений: 525
Ratio: 19.804
Поблагодарили: 950
100%
ussr.gif
А кто подскажет, какой дубляж был в кинотеатре?
kryl1411 ®
Стаж: 11 лет
Сообщений: 487
Ratio: 75.606
Раздал: 31.45 TB
Поблагодарили: 25239
100%
russia.gif
kiloka писал(а): Перейти к сообщению
А кто подскажет, какой дубляж был в кинотеатре?

В кинотеатре наверное была театральная версия ... Дублированный .
turok-68
Стаж: 10 лет 8 мес.
Сообщений: 133
Ratio: 64.094
Поблагодарили: 48
100%
Откуда: Мичуринск
russia.gif
Спасибо!!! kryl1411 отличная работа :респект:

_________________
Enkidu12
Стаж: 11 лет 7 мес.
Сообщений: 48
Ratio: 3.73
Поблагодарили: 69
100%
ussr.gif
Супер, спасибо! Буду надеяться, что 2 и 3 части все же появятся со временем.
DParfenov
Стаж: 9 лет 9 мес.
Сообщений: 60
Ratio: 121.593
100%
russia.gif
Enkidu12 писал(а): Перейти к сообщению
Супер, спасибо! Буду надеяться, что 2 и 3 части все же появятся со временем.


+1!
Показать сообщения:   
Начать новую тему   Ответить на тему    Торрент-трекер NNM-Club -> Остальное -> hand made * video Часовой пояс: GMT + 3
Страницы:  1, 2, 3  След.
Страница 1 из 3