Классический форум-трекер
canvas not supported
Нас вместе: 4 233 112

Звездный путь: Следующее поколение / Star Trek: The next generation (Сезон 5, 26 серий из 26) (1991-1992) DVDRip [H.264]


 
 
RSS
Начать новую тему   Ответить на тему    Торрент-трекер NNM-Club -> Архив торрентов -> Архив Сериалов и Архив Старого многосерийного кино до 90-х
Автор Сообщение
smpeal ®
Стаж: 11 лет 9 мес.
Сообщений: 62
Ratio: 99.87
Поблагодарили: 7340
100%
ussr.gif
Звездный путь: Следующее поколение / Star Trek: The next generation (Сезон 5, 26 серий из 26) (1991-1992) DVDRip [H.264]
Русское название: Звездный путь: Следующее поколение
Оригинальное название: Star Trek: The next generation
Год выпуска: 1991-1992
Жанр: Фантастика, Боевик, Приключения

Перевод: Профессиональный многоголосый закадровый (AXN Sci-fi)
Cубтитры: Отсутствуют

Сэмпл
Дата мировой премьеры: 28 сентября 1987

Создатель, сценарист и продюсер: Джин Родденберри
Продюсеры: Рик Берман и Бреннан Брага
Режиссеры: Клиф Боул, Лес Ландау, Уинрих Кольбе, Роб Боумен, Роберт Ширер, Роберт Вимер, Джонатан Фрейкс, Гэбриэлль Бомонт, Александр Сингер, Кори Аллен, Пол Линч, Патрик Стюарт и др.
Актеры: Патрик Стюарт, Джонатан Фрейкс, Брент Спайнер, Марина Сиртис, Майкл Дорн, Гейтс Мак-Федден, Левар Бертон, Дэнис Кросби, Диана Мулдар, Уил Уитон, Вупи Голдберг, Джон Де Ланси

Описание фильма:
В мире Star Trek прошло 80 лет. Сменился экипаж, усовершенствовались технологии, сменился даже Энтерпрайз. Остались только знакомое и полюбившиеся нам имя корабля и не изменились цели его команды — Смело идти туда, где не ступала нога человека!

На мостике — Следующее Поколение…

Продолжительность: 26 x ~00:44:00
Качество видео: DVDRip
Видеокодек: MPEG-4 AVC/H.264
Битрейт видео: ~1759 Kbps
Размер кадра: 720х544
Аудио:
1. AC3, 192 Kbps, 2 канала, русский многоголосый закадровый
2. AC3, 384 Kbps, 6 каналов, английский (оригинальный)
Общее
Уникальный идентификатор : 239978848051917512905831821239892661073 (0xB48A3EB4EE1B1498BA35A5469DF15351)
Полное имя : Z:\Зарубежные сериалы\Star Trek\Поколения\Сезон 5\Star.trek.TNG.s05e01.Redemption,Part II.mkv
Формат : Matroska
Версия формата : Version 2
Размер файла : 729 Мбайт
Продолжительность : 43 м.
Общий поток : 2337 Кбит/сек
Дата кодирования : UTC 2012-01-03 11:10:48
Программа кодирования : mkvmerge v5.2.1 ('A Far Off Place') built on Jan 2 2012 23:21:10
Библиотека кодирования : libebml v1.2.3 + libmatroska v1.3.0

Видео
Идентификатор : 1
Формат : AVC
Формат/Информация : Advanced Video Codec
Профиль формата : High@L3.1
Параметр CABAC формата : Да
Параметр ReFrames формата : 8 кадров
Идентификатор кодека : V_MPEG4/ISO/AVC
Продолжительность : 43 м.
Битрейт : 1759 Кбит/сек
Ширина : 720 пикселей
Высота : 544 пикселя
Соотношение сторон : 4:3
Режим частоты кадров : Постоянный
Частота кадров : 25,000 кадров/сек
Цветовое пространство : YUV
Субдискретизация насыщенности : 4:2:0
Битовая глубина : 8 бит
Тип развёртки : Прогрессивная
Бит/(Пиксели*Кадры) : 0.180
Размер потока : 535 Мбайт (73%)
Библиотека кодирования : x264 core 120 r2120 0c7dab9
Настройки программы : cabac=1 / ref=8 / deblock=1:-2:-2 / analyse=0x3:0x133 / me=umh / subme=11 / psy=1 / psy_rd=1.00:0.25 / mixed_ref=1 / me_range=32 / chroma_me=1 / trellis=2 / 8x8dct=1 / cqm=0 / deadzone=6,6 / fast_pskip=0 / chroma_qp_offset=-4 / threads=6 / sliced_threads=0 / nr=0 / decimate=0 / interlaced=0 / bluray_compat=0 / constrained_intra=0 / bframes=16 / b_pyramid=2 / b_adapt=2 / b_bias=0 / direct=3 / weightb=1 / open_gop=0 / weightp=2 / keyint=250 / keyint_min=25 / scenecut=40 / intra_refresh=0 / rc_lookahead=60 / rc=2pass / mbtree=1 / bitrate=1759 / ratetol=1.0 / qcomp=0.80 / qpmin=0 / qpmax=69 / qpstep=4 / cplxblur=20.0 / qblur=0.5 / ip_ratio=1.10 / aq=1:0.50
Язык : English
Default : Да
Forced : Нет

Аудио #1
Идентификатор : 2
Формат : AC-3
Формат/Информация : Audio Coding 3
Расширение режима : CM (complete main)
Параметр Endianness формата : Big
Идентификатор кодека : A_AC3
Продолжительность : 43 м.
Вид битрейта : Постоянный
Битрейт : 192 Кбит/сек
Каналы : 2 канала
Расположение каналов : Front: L R
Частота : 48,0 КГц
Битовая глубина : 16 бит
Метод сжатия : С потерями
Размер потока : 59,9 Мбайт (8%)
Заголовок : AXN Sci-fi
Язык : Russian
Default : Да
Forced : Нет

Аудио #2
Идентификатор : 3
Формат : AC-3
Формат/Информация : Audio Coding 3
Расширение режима : CM (complete main)
Параметр Endianness формата : Big
Идентификатор кодека : A_AC3
Продолжительность : 43 м.
Вид битрейта : Постоянный
Битрейт : 384 Кбит/сек
Каналы : 6 каналов
Расположение каналов : Front: L C R, Side: L R, LFE
Частота : 48,0 КГц
Битовая глубина : 16 бит
Метод сжатия : С потерями
Размер потока : 120 Мбайт (16%)
Язык : English
Default : Нет
Forced : Нет
Star Trek: The Next Generation на NNM-club

Скриншоты:



Время раздачи: Выходные с 12 по 23, иногда вечером в будни
[nnm-club]_Star_Trek.TNG.s5.RUS.torrent
 Торрент: Платиновая раздача  Зарегистрирован
 
Скачать


 Зарегистрирован:   13 Апр 2013 15:05:30
 Размер:   18.5 GB  (
 Рейтинг:   4.7 (Голосов: 14)
 Поблагодарили:   27
 Проверка:   Оформление проверено модератором 14 Апр 2013 14:49:38
Как cкачать  ·  Как раздать  ·  Правильно оформить  ·  Поднять ратио!  
Топик был перенесен из форума Звездный путь / Star Trek в форум Архив Сериалов

Причина переноса: Поглощено раздачей http://nnmclub.to/forum/viewtopic.php?t=643825
Robert Ingil
Показать сообщения:   
Начать новую тему   Ответить на тему    Торрент-трекер NNM-Club -> Архив торрентов -> Архив Сериалов и Архив Старого многосерийного кино до 90-х Часовой пояс: GMT + 3
Страница 1 из 1