Классический форум-трекер
canvas not supported
Нас вместе: 4 205 953

Calvin Harris feat. Ellie Goulding - I Need Your Love (2013) WEBRip [H.264/1080p]


 
 
RSS
Начать новую тему   Ответить на тему    Торрент-трекер NNM-Club -> Театр и Музыкальное видео -> Музыкальные клипы
Автор Сообщение
FedExe ®
Uploader 300+
Стаж: 12 лет 3 мес.
Сообщений: 9668
Ratio: 392.144
Поблагодарили: 946405
100%
Откуда: LoX - living off experien
Calvin Harris feat. Ellie Goulding - I Need Your Love (2013) [H.264/1080p] WEBRip
Год выхода : 2013
Исполнитель : Calvin Harris feat. Ellie Goulding
Название : I Need Your Love
Продолжительность : 00:03:46
Жанр : Electro, House

Видеокодек: MPEG4 Video (AVC)
Битрейт видео: 4 854 Kbps
Размер кадра: 1920 x 1080
Качество видео: WEBRip
Аудиокодек: AAC
Битрейт аудио: 192 Kbps 2 channels
Код: выделить все
General
Format                           : MPEG-4
Format profile                   : Base Media / Version 2
Codec ID                         : mp42
File size                        : 136 MiB
Duration                         : 3mn 46s
Overall bit rate                 : 5 049 Kbps
Encoded date                     : UTC 2013-04-11 17:52:25
Tagged date                      : UTC 2013-04-11 17:52:25

Video
ID                               : 1
Format                           : AVC
Format/Info                      : Advanced Video Codec
Format profile                   : High@L4.0
Format settings, CABAC           : Yes
Format settings, ReFrames        : 1 frame
Codec ID                         : avc1
Codec ID/Info                    : Advanced Video Coding
Duration                         : 3mn 46s
Bit rate mode                    : Variable
Bit rate                         : 4 854 Kbps
Maximum bit rate                 : 11.5 Mbps
Width                            : 1 920 pixels
Height                           : 1 080 pixels
Display aspect ratio             : 16:9
Frame rate mode                  : Constant
Frame rate                       : 25.000 fps
Color space                      : YUV
Chroma subsampling               : 4:2:0
Bit depth                        : 8 bits
Scan type                        : Progressive
Bits/(Pixel*Frame)               : 0.094
Stream size                      : 131 MiB (96%)
Tagged date                      : UTC 2013-04-11 17:52:31

Audio
ID                               : 2
Format                           : AAC
Format/Info                      : Advanced Audio Codec
Format profile                   : LC
Codec ID                         : 40
Duration                         : 3mn 46s
Bit rate mode                    : Variable
Bit rate                         : 192 Kbps
Maximum bit rate                 : 205 Kbps
Channel(s)                       : 2 channels
Channel positions                : Front: L R
Sampling rate                    : 44.1 KHz
Compression mode                 : Lossy
Stream size                      : 5.19 MiB (4%)
Title                            : IsoMedia File Produced by Google, 5-11-2011
Encoded date                     : UTC 2013-04-11 17:52:29
Tagged date                      : UTC 2013-04-11 17:52:31

Скриншоты:



Время раздачи: 24/7 по мере возможности...
[NNM-Club.ru]_[video] Calvin_Harris_feat._Ellie_Goulding_-_I_Need_Your_Love.mp4.torrent
 Торрент: Платиновая раздача  Зарегистрирован
 
Скачать


Примагнититься
 Зарегистрирован:   17 Апр 2013 20:46:32
 Размер:   136 MB  (
 Рейтинг:   4.1 (Голосов: 18)
 Поблагодарили:   65
 Проверка:   Оформление проверено модератором 18 Апр 2013 02:25:52
Как cкачать  ·  Как раздать  ·  Правильно оформить  ·  Поднять ратио!  
Показать сообщения:   
Начать новую тему   Ответить на тему    Торрент-трекер NNM-Club -> Театр и Музыкальное видео -> Музыкальные клипы Часовой пояс: GMT + 3
Страница 1 из 1