Классический форум-трекер
canvas not supported
Нас вместе: 4 210 922

Хороший доктор / The Good Doctor (2011) HDRip


 
 
RSS
Начать новую тему   Ответить на тему    Торрент-трекер NNM-Club -> Зарубежное кино -> Зарубежные Фильмы (SD)
Автор Сообщение
eXPpectant ®
Стаж: 13 лет
Сообщений: 2457
Ratio: 1628.264
Раздал: 18.08 TB
Поблагодарили: 306127
100%
Откуда: Нижний Тагил + Дмитров
russia.gif
Хороший доктор / The Good Doctor (2011) HDRip
«Надо уметь остановиться»
Русское название: Хороший доктор
Оригинальное название: The Good Doctor
Год выпуска: 2011
Страна: США
Жанр: Триллер, Драма
Описание фильма:
Молодой врач стремится произвести впечатление на свое начальство и коллег. Когда в клинику, где он работает, попадает 18-летняя пациентка с инфекцией почек, доктор вмешивается в ее лечение, чтобы надолго оставить девушку в больнице.
Режиссер: Лэнс Дэйли
Продюсер: Орландо Блум, Дэн Этеридж, Джонатан Кинг
Актеры: Орландо Блум, Райли Кеох, Тараджи П. Хенсон, Роб Морроу, Майкл Пенья
Продолжительность: 01:30:49
Перевод: Многоголосый закадровый, профессиональный [лицензия]

Дата мировой премьеры: 23 апреля 2011
Дата российской премьеры: 4 апреля 2013, «Другое кино»
Дата выхода DVD-релиза: 24 апреля 2013, «Кармен Видео», «Новый Диск»
Видеокодек: Xvid
Битрейт видео: ~1760 Кбит/с
Размер кадра: 720x384
Качество видео: HDRip
Аудиокодек: AC3 5.1
Битрейт аудио: 384 Кбит/с
Общее
Полное имя : D:\Торрент раздача\Horoshij.doktor.2011.P.HDRip.avi
Формат : AVI
Формат/Информация : Audio Video Interleave
Размер файла : 1,37 Гбайт
Продолжительность : 1 ч. 30 м.
Общий поток : 2154 Кбит/сек
Название фильма : Horoshij.doktor.2011.P.HDRip
Жанр : Drama / Thriller
Программа кодирования : VirtualDubMod 1.5.10.2 (build 2540/release)
Формат оригинала/Имя : Movie

Видео
Идентификатор : 0
Формат : MPEG-4 Visual
Профиль формата : Advanced Simple@L5
Параметр BVOP формата : 1
Параметр QPel формата : Нет
Параметр GMC формата : Без точки перехода
Параметр матрицы формата : Выборочная
Идентификатор кодека : XVID
Идентификатор кодека/Подсказка : XviD
Продолжительность : 1 ч. 30 м.
Битрейт : 1761 Кбит/сек
Ширина : 720 пикселей
Высота : 384 пикселя
Соотношение сторон : 1,85:1
Частота кадров : 23,976 кадра/сек
Цветовое пространство : YUV
Субдискретизация насыщенности : 4:2:0
Битовая глубина : 8 бит
Тип развёртки : Прогрессивная
Метод сжатия : С потерями
Бит/(Пиксели*Кадры) : 0.266
Размер потока : 1,12 Гбайт (82%)
Библиотека кодирования : XviD 1.2.1 (UTC 2008-12-04)

Аудио
Идентификатор : 1
Формат : AC-3
Формат/Информация : Audio Coding 3
Расширение режима : CM (complete main)
Параметр Endianness формата : Big
Идентификатор кодека : 2000
Продолжительность : 1 ч. 30 м.
Вид битрейта : Постоянный
Битрейт : 384 Кбит/сек
Каналы : 6 каналов
Расположение каналов : Front: L C R, Side: L R, LFE
Частота : 48,0 КГц
Битовая глубина : 16 бит
Метод сжатия : С потерями
Размер потока : 249 Мбайт (18%)
Выравнивание : Разделение по промежуткам
Продолжительность промежутка : 42 мс. (1,00 видеокадр)
Время предзагрузки промежутка : 500 мс.
Скриншоты:

Время раздачи: 24/7
 Торрент: Платиновая раздача  Зарегистрирован
 
Скачать


Примагнититься
 Зарегистрирован:   21 Апр 2013 16:50:10
 Размер:   1.37 GB  (
 Рейтинг:   4.6 (Голосов: 30)
 Поблагодарили:   156
 Проверка:   Оформление проверено модератором 21 Апр 2013 20:58:28
Как cкачать  ·  Как раздать  ·  Правильно оформить  ·  Поднять ратио!  
Показать сообщения:   
Начать новую тему   Ответить на тему    Торрент-трекер NNM-Club -> Зарубежное кино -> Зарубежные Фильмы (SD) Часовой пояс: GMT + 3
Страница 1 из 1