Классический форум-трекер
canvas not supported
Нас вместе: 4 216 246

Хороший доктор / The Good Doctor (2011) HDRip


 
 
RSS
Начать новую тему   Ответить на тему    Торрент-трекер NNM-Club -> Зарубежное кино -> Зарубежные Фильмы (SD)
Автор Сообщение
eXPpectant ®
Стаж: 13 лет 2 мес.
Сообщений: 2457
Ratio: 1628.264
Раздал: 18.08 TB
Поблагодарили: 306588
100%
Откуда: Нижний Тагил + Дмитров
russia.gif
Хороший доктор / The Good Doctor (2011) HDRip
«Надо уметь остановиться»
Русское название: Хороший доктор
Оригинальное название: The Good Doctor
Год выпуска: 2011
Страна: США
Жанр: Триллер, Драма
Описание фильма:
Молодой врач стремится произвести впечатление на свое начальство и коллег. Когда в клинику, где он работает, попадает 18-летняя пациентка с инфекцией почек, доктор вмешивается в ее лечение, чтобы надолго оставить девушку в больнице.
Режиссер: Лэнс Дэйли
Продюсер: Орландо Блум, Дэн Этеридж, Джонатан Кинг
Актеры: Орландо Блум, Райли Кеох, Тараджи П. Хенсон, Роб Морроу, Майкл Пенья
Продолжительность: 01:30:49
Перевод: Многоголосый закадровый, профессиональный [лицензия]

Дата мировой премьеры: 23 апреля 2011
Дата российской премьеры: 4 апреля 2013, «Другое кино»
Дата выхода DVD-релиза: 24 апреля 2013, «Кармен Видео», «Новый Диск»
Видеокодек: Xvid
Битрейт видео: ~950 Кбит/с
Размер кадра: 720x384
Качество видео: HDRip
Аудиокодек: AC3 2.0
Битрейт аудио: 192 Кбит/с
Общее
Полное имя : D:\Торрент раздача\Horoshij.doktor.2011.P.HDRip.750MB.avi
Формат : AVI
Формат/Информация : Audio Video Interleave
Размер файла : 747 Мбайт
Продолжительность : 1 ч. 30 м.
Общий поток : 1150 Кбит/сек
Название фильма : Horoshij.doktor.2011.P.HDRip
Жанр : Drama / Thriller
Программа кодирования : VirtualDubMod 1.5.10.2 (build 2540/release)
Библиотека кодирования : VirtualDub build 32661/release
Формат оригинала/Имя : Movie

Видео
Идентификатор : 0
Формат : MPEG-4 Visual
Профиль формата : Advanced Simple@L5
Параметр BVOP формата : 2
Параметр QPel формата : Нет
Параметр GMC формата : Без точки перехода
Параметр матрицы формата : Default (H.263)
Режим смешивания : Сжатый битовый поток
Идентификатор кодека : XVID
Идентификатор кодека/Подсказка : XviD
Продолжительность : 1 ч. 30 м.
Битрейт : 949 Кбит/сек
Ширина : 720 пикселей
Высота : 384 пикселя
Соотношение сторон : 1,85:1
Частота кадров : 23,976 кадра/сек
Цветовое пространство : YUV
Субдискретизация насыщенности : 4:2:0
Битовая глубина : 8 бит
Тип развёртки : Прогрессивная
Метод сжатия : С потерями
Бит/(Пиксели*Кадры) : 0.143
Размер потока : 616 Мбайт (82%)
Библиотека кодирования : XviD 64

Аудио
Идентификатор : 1
Формат : AC-3
Формат/Информация : Audio Coding 3
Расширение режима : CM (complete main)
Параметр Endianness формата : Big
Идентификатор кодека : 2000
Продолжительность : 1 ч. 30 м.
Вид битрейта : Постоянный
Битрейт : 192 Кбит/сек
Каналы : 2 канала
Расположение каналов : Front: L R
Частота : 48,0 КГц
Битовая глубина : 16 бит
Метод сжатия : С потерями
Размер потока : 125 Мбайт (17%)
Выравнивание : Соединение по промежуткам
Продолжительность промежутка : 42 мс. (1,00 видеокадр)
Время предзагрузки промежутка : 512 мс.
Скриншоты:

Время раздачи: 08:00-23:00 (МСК)
[NNM-Club.ru]_Horoshij.doktor.2011.P.HDRip.750MB.torrent
 Торрент: Платиновая раздача  Зарегистрирован
 
Скачать


Примагнититься
 Зарегистрирован:   21 Апр 2013 22:08:24
 Размер:   747 MB  (
 Рейтинг:   4.9 (Голосов: 11)
 Поблагодарили:   85
 Проверка:   Оформление проверено модератором 21 Апр 2013 23:38:24
Как cкачать  ·  Как раздать  ·  Правильно оформить  ·  Поднять ратио!  
avgbarn
Стаж: 12 лет 1 мес.
Сообщений: 672
Ratio: 2.891
Раздал: 1.683 TB
100%
Откуда: Барнаул
russia.gif
В таком возрасте у доктора медицинский опыт ни какой, а с противоположным полом уже навыки есть.
Показать сообщения:   
Начать новую тему   Ответить на тему    Торрент-трекер NNM-Club -> Зарубежное кино -> Зарубежные Фильмы (SD) Часовой пояс: GMT + 3
Страница 1 из 1