Классический форум-трекер
canvas not supported
Нас вместе: 4 232 304

26 лет / 26 nyeon / 26 Years (2012) HDRip [VO]


 
 
RSS
Начать новую тему   Ответить на тему    Торрент-трекер NNM-Club -> Зарубежное кино -> Азиатское кино (SD)
Автор Сообщение
eXPpectant ®
Стаж: 14 лет 5 мес.
Сообщений: 2457
Ratio: 1628.264
Раздал: 18.08 TB
Поблагодарили: 308063
100%
Откуда: Нижний Тагил + Дмитров
russia.gif
26 лет / 26 nyeon / 26 Years (2012) HDRip
Производство: Корея Южная / Sega Sammy Entertainment
Жанр: драма, триллер, боевик

Режиссер: Джо Гын Хен
Актеры: Пэ Су Бин, Хан Хе Чжин, Сыль-он Им, Чан Гван, Чин Гу, Ли Кён Ён

Описание:
Секретный проект, которым руководили спортсмены, бандиты, полицейские, руководители компаний, начальники департаментов охраны для осуждения «этого человека», который является виновником массовых убийств, произошедших 26 лет назад в 1980 году в Кванджу.



Продолжительность: 02:15:40
Качество видео: HDRip
Перевод: любительский одноголосый закадровый (den904) ненормативная лексика
Субтитры: отсутствуют

Видео: Xvid, 720x296, ~2000 Kbps
Аудио: MP3, 2 ch, 192 Kbps
Группу незнакомцев — молодого бандита, двух бизнесменов, чемпионку по спортивной стрельбе и полицейского — объединяет общая трагедия, а именно гибель людей в мае 1980 года в городе Кванджу во время подавления гражданских протестов армией. Кто-то из героев потерял родных, а кто-то нажимал на курок и с тех пор раскаялся. Спустя 26 лет они организуют заговор с целью убийства человека, которого считают виновным в трагедии — бывшего южнокорейского диктатора Чон Ду Хвана.

Современных южнокорейских народовольцев фильм не показывает в негативном свете — они трагические герои, пытающиеся добиться справедливости. В этом смысле триллер «26 лет», сделанный по мотивам популярного веб-комикса, несмотря на свою жанровость, — политическое высказывание. Из-за остроты темы проект несколько лет не могли запустить, ни одна студия и мейнстримовый дистрибьютор за него не брались, и ходили слухи, что поискам финансирования мешает некое внешнее давление. В итоге часть бюджета собрали краудфандингом, и режиссером картины стал Чо Гын-хён — известный в индустрии художник-постановщик (в том числе «Истории двух сестер» Ким Джи-уна и «Дуэлянта» Ли Мён-сэ).

Чтобы не попасть под обвинения в призыве к убийству реального человека и под иски о защите чести и достоинства, автор ленты пошел на уловку: диктатора в фильме никто не называет Чон Ду Хваном, в титрах фильма и диалогах он просто «тот человек».
Общее
Полное имя : D:\Торрент раздача\26.Years.2012.HDRip.avi
Формат : AVI
Формат/Информация : Audio Video Interleave
Профиль формата : OpenDML
Размер файла : 2,09 Гбайт
Продолжительность : 2 ч. 15 м.
Общий поток : 2203 Кбит/сек
Название фильма : 26.Years.2012.HDRip
Режиссёр : odingolos & netvkino [den904]
Жанр : Action/Drama
Формат оригинала/Имя : Movie

Видео
Идентификатор : 0
Формат : MPEG-4 Visual
Профиль формата : Advanced Simple@L5
Параметр BVOP формата : Нет
Параметр QPel формата : Нет
Параметр GMC формата : Без точки перехода
Параметр матрицы формата : Default (MPEG)
Идентификатор кодека : XVID
Идентификатор кодека/Подсказка : XviD
Продолжительность : 2 ч. 15 м.
Битрейт : 1999 Кбит/сек
Ширина : 720 пикселей
Высота : 296 пикселей
Соотношение сторон : 2,40:1
Частота кадров : 23,976 кадра/сек
Цветовое пространство : YUV
Субдискретизация насыщенности : 4:2:0
Битовая глубина : 8 бит
Тип развёртки : Прогрессивная
Метод сжатия : С потерями
Бит/(Пиксели*Кадры) : 0.391
Размер потока : 1,89 Гбайт (91%)
Библиотека кодирования : XviD 62

Аудио
Идентификатор : 1
Формат : MPEG Audio
Версия формата : Version 1
Профиль формата : Layer 3
Идентификатор кодека : 55
Идентификатор кодека/Подсказка : MP3
Продолжительность : 2 ч. 15 м.
Вид битрейта : Постоянный
Битрейт : 192 Кбит/сек
Каналы : 2 канала
Частота : 44,1 КГц
Метод сжатия : С потерями
Размер потока : 186 Мбайт (9%)
Выравнивание : Разделение по промежуткам
Продолжительность промежутка : 42 мс. (1,00 видеокадр)
Библиотека кодирования : LAMELAME_MAJOR_VERSI
Скриншоты:

Все одноименные релизы в Клубе
Время раздачи: 08:00-23:00 (МСК)
[NNMClub.to]_26 nyeon 26 Years (2012) HDRip VO.torrent
 Торрент: Платиновая раздача  Зарегистрирован
 
Скачать


Примагнититься
 Зарегистрирован:   03 Сен 2019 01:52:57
 Размер:   2.09 GB  (
 Рейтинг:   4.7 (Голосов: 46)
 Поблагодарили:   215
 Проверка:   Оформление проверено модератором 03 Сен 2019 01:53:48
Как cкачать  ·  Как раздать  ·  Правильно оформить  ·  Поднять ратио!  

_________________
пропускная способность канала прямопропорциональна количеству релизов
Sosidg
Стаж: 13 лет 7 мес.
Сообщений: 37
Ratio: 22.718
11.21%
Спасибо!
iliya163
Стаж: 12 лет 4 мес.
Сообщений: 96
Ratio: 34.195
100%
годное кино.
Показать сообщения:   
Начать новую тему   Ответить на тему    Торрент-трекер NNM-Club -> Зарубежное кино -> Азиатское кино (SD) Часовой пояс: GMT + 3
Страница 1 из 1