Классический форум-трекер
canvas not supported
Нас вместе: 4 210 998

Менталист / The Mentalist (2012) WEB-DL [720p] (Сезон: 5, серии 1-21 (22)) (napaBo3uk) [обновляемая]


Страницы:  1, 2  След. 
 
RSS
Начать новую тему   Ответить на тему    Торрент-трекер NNM-Club -> Архив торрентов -> Архив Сериалов и Архив Старого многосерийного кино до 90-х
Автор Сообщение
chifram ®
Стаж: 15 лет 6 мес.
Сообщений: 6
Ratio: 2.038
Поблагодарили: 109
3.73%
ukraine.gif
Менталист / The Mentalist (2012) WEB-DL [720p] (Сезон: 5, серии 1-21 (22)) (napaBo3uk) [обновляемая]
Русское название: Менталист
Оригинальное название: The Mentalist
Год выпуска: 2013
Жанр: Детектив, Драма, Криминал

Перевод: Одноголосый закадровый, любительский
Язык: RU, ENG
Озвучка / Автор перевода: napaBo3uk
Вид субтитров: Отсутствуют



Режиссер: Крис Лонг, Дэвид Баррет, Чарльз Бисон
Актеры: Саймон Бейкер, Робин Танни, Аманда Риджетти, Тим Кенг, Овайн Йомен, Грегори Итцин

Описание фильма:
Патрик Джейн — детектив и независимый консультант из Калифорнийского Бюро Расследований (КБР), он использует свои отточенные, как лезвие, навыки наблюдения для раскрытия тяжких преступлений. В самом Бюро Джейн известен за частые нарушения протокола, а также за его звездное прошлое: он работал медиумом, однако теперь сам признает, что симулировал паранормальные способности. Роль Джейна в раскрытии целой серии загадочных преступлений высоко ценится коллегами. Но суровый старший агент Тереза Лисбон против того, чтоб Джейн работал с ее отрядом, и то вынужденно признает его успехи, то критикует его за театральность, нарциссизм и отсутствие границ.

Продолжительность: ~00:42:00 серия
Качество видео: WEB-DL 720p
Сэмпл: Скачать

Видеокодек: MPEG-4 AVC/H.264
Битрейт видео: ~4027 kbps, 0.183 bit/pixel
Размер кадра: 1280x720
Аудиокодек: AC3 5.1
Битрейт аудио:
Аудио 1: Dolby Digital 5.1 / 48 kHz / 384 kbps (RUS napaBo3uk)
Аудио 2: Dolby Digital 5.1 / 48 kHz / 384 kbps (EN)

Скриншоты:
General
Complete name : Mentalist.s05e01.The.Red.Glass.Bead.HD720p(rus).mkv
Format : Matroska
File size : 1.42 GiB
Duration : 41mn 25s
Overall bit rate : 4 892 Kbps
Encoded date : UTC 2012-10-03 11:40:24
Writing application : mkvmerge v5.8.0 ('No Sleep / Pillow') built on Sep 2 2012 15:37:04
Writing library : libebml v1.2.3 + libmatroska v1.3.0

Video
ID : 1
Format : AVC
Format/Info : Advanced Video Codec
Format profile : High@L3.1
Format settings, CABAC : No
Format settings, ReFrames : 2 frames
Muxing mode : Container profile=Unknown@3.1
Codec ID : V_MPEG4/ISO/AVC
Duration : 41mn 25s
Bit rate : 4 027 Kbps
Width : 1 280 pixels
Height : 720 pixels
Display aspect ratio : 16:9
Frame rate : 23.976 fps
Color space : YUV
Chroma subsampling : 4:2:0
Bit depth : 8 bits
Scan type : Progressive
Bits/(Pixel*Frame) : 0.182
Stream size : 1.17 GiB (82%)
Color primaries : BT.709-5, BT.1361, IEC 61966-2-4, SMPTE RP177
Transfer characteristics : BT.709-5, BT.1361
Matrix coefficients : BT.709-5, BT.1361, IEC 61966-2-4 709, SMPTE RP177

Audio #1
ID : 2
Format : AC-3
Format/Info : Audio Coding 3
Mode extension : CM (complete main)
Codec ID : A_AC3
Duration : 41mn 25s
Bit rate mode : Constant
Bit rate : 384 Kbps
Channel(s) : 6 channels
Channel positions : Front: L C R, Side: L R, LFE
Sampling rate : 48.0 KHz
Bit depth : 16 bits
Stream size : 114 MiB (8%)
Title : napaBo3uk
Language : Russian

Audio #2
ID : 3
Format : AC-3
Format/Info : Audio Coding 3
Mode extension : CM (complete main)
Codec ID : A_AC3
Duration : 41mn 25s
Bit rate mode : Constant
Bit rate : 384 Kbps
Channel(s) : 6 channels
Channel positions : Front: L C R, Side: L R, LFE
Sampling rate : 48.0 KHz
Bit depth : 16 bits
Stream size : 114 MiB (8%)
Title : Eng
Внимание! Раздача ведётся путём добавления новых серий; при каждом добавлении создаётся новый торрент.
Чтобы начать докачку новой серии, пользователям необходимо сделать следующее:
1. Остановить скачивание;
2. Удалить старый торрент у себя из клиента (старые серии удалять не надо);
3. Скачать новый торрент и запустить его у себя в клиенте вместо старого, при этом указать клиенту путь в старую папку куда и должно происходить скачивание новых серий. Ваш клиент при этом должен произвести хеширование (проверку) старой папки и будет докачивать только те серии, которых у вас ещё нет. Старые серии при этом не удаляются, а продолжают раздаваться! Eсли вы уже удалили старые серии, то предотвратить повторную закачку старых серий можно, отжав галочку в соответствующих местах при запуске нового торрента.
Время раздачи: 24/7

Все релизы Mentalist
 Торрент: Платиновая раздача  Зарегистрирован
 
Скачать


 Зарегистрирован:   07 Май 2013 10:28:22
 Размер:   30.2 GB  (
 Рейтинг:   4.4 (Голосов: 43)
 Поблагодарили:   109
 Проверка:   Оформление проверено модератором 07 Май 2013 14:54:07
Как cкачать  ·  Как раздать  ·  Правильно оформить  ·  Поднять ратио!  
Дмитрий Валерьевич
Uploader 100+
Стаж: 13 лет
Сообщений: 6789
Ratio: 14K
Раздал: 276 TB
Поблагодарили: 336554
100%
Откуда: Есть такой город – Глазов
russia.gif
chifram
Спасибо за релиз.
bayer_a
Стаж: 13 лет 1 мес.
Сообщений: 823
Ratio: 3.239
Поблагодарили: 428
100%
krevedko.png
Ну наконец!

_________________
ReadyNAS NV+ [X-RAID] / Transmission 24/7
chifram ®
Стаж: 15 лет 6 мес.
Сообщений: 6
Ratio: 2.038
Поблагодарили: 109
3.73%
ukraine.gif
+20 серия
WWWorm14
Стаж: 12 лет 5 мес.
Сообщений: 107
Ratio: 135.283
100%
russia.gif
Интересно,мне одному Ван Пелт кажется трансвиститом!? =)
zloy_papuas
Стаж: 13 лет 6 мес.
Сообщений: 3
Ratio: 3.771
100%
да здравствует napaBo3uk!! :супер!:

отличный сериал
до сих пор не надоел
озвучка napaBo3uk'a - the best !!! :клево: :клево: :клево:

WWWorm14 писал(а): Перейти к сообщению
Интересно,мне одному Ван Пелт кажется трансвиститом!? =)

неа, мне не кажется )
Valentin_K
Стаж: 9 лет 7 мес.
Сообщений: 3
10%
WWWorm14 писал(а): Перейти к сообщению
Интересно,мне одному Ван Пелт кажется трансвиститом!? =)


Она пропадала из сериала, так как беременная ходила. Если вы обратили внимание, то она все время сидела за компом в последних сериях перед отправкой на "обучение". А сейчас вернулась... Так как в январе 2013 родила...

Вот слегка располнела...
bayer_a
Стаж: 13 лет 1 мес.
Сообщений: 823
Ratio: 3.239
Поблагодарили: 428
100%
krevedko.png
Ну когда же появятся заключительные серии?

_________________
ReadyNAS NV+ [X-RAID] / Transmission 24/7
chifram ®
Стаж: 15 лет 6 мес.
Сообщений: 6
Ratio: 2.038
Поблагодарили: 109
3.73%
ukraine.gif
+21 серия
bayer_a
Стаж: 13 лет 1 мес.
Сообщений: 823
Ratio: 3.239
Поблагодарили: 428
100%
krevedko.png
Спасибо!

_________________
ReadyNAS NV+ [X-RAID] / Transmission 24/7
konstantin35
Uploader 200+
 
Стаж: 11 лет 11 мес.
Сообщений: 761
Ratio: 281.765
100%
Откуда: Воронеж
ussr.gif
Уже 22-ая вышла!

_________________
Нет ничего ни плохого, ни хорошего в этом Мире. Есть только наше отношение к чему-либо.
bayer_a
Стаж: 13 лет 1 мес.
Сообщений: 823
Ratio: 3.239
Поблагодарили: 428
100%
krevedko.png
Уважаемые, ну сподобдесь уже...

_________________
ReadyNAS NV+ [X-RAID] / Transmission 24/7
Stanley Lloyd
Стаж: 9 лет 11 мес.
Сообщений: 1
Ratio: 48.43
0%
ussr.gif
C нетерпением ждем, надеемся и верим =) в скорый релиз последней серии...
bayer_a
Стаж: 13 лет 1 мес.
Сообщений: 823
Ratio: 3.239
Поблагодарили: 428
100%
krevedko.png
Да жду не снетерпением, я уже на какашки исхожу!
Релизёр! Закончи сезон, пожалуйста!!! Мы будем тебе преогромно благодарны!!

_________________
ReadyNAS NV+ [X-RAID] / Transmission 24/7
lexal2002
Стаж: 10 лет 8 мес.
Сообщений: 1
Ratio: 18.779
100%
Присоединяюсь ! Оооччень просим !
Показать сообщения:   
Начать новую тему   Ответить на тему    Торрент-трекер NNM-Club -> Архив торрентов -> Архив Сериалов и Архив Старого многосерийного кино до 90-х Часовой пояс: GMT + 3
Страницы:  1, 2  След.
Страница 1 из 2