Классический форум-трекер
canvas not supported
Нас вместе: 4 210 523

NG. Йеллоустоун / Yellowstone (2012) BDRip [H.264/720p-LQ]


 
 
RSS
Начать новую тему   Ответить на тему    Торрент-трекер NNM-Club -> Документалистика и Телепередачи -> Релакс / Relax
Автор Сообщение
Отец Лоренцо ®
Uploader 1000+, Сталкер
Стаж: 10 лет 11 мес.
Сообщений: 4039
Ratio: 7393.141
Раздал: 1.0172 PB
Поблагодарили: 123360
100%
Откуда: Харьков, Украина
NG. Йеллоустоун / Yellowstone (2012) BDRip [H.264/720p-LQ]
Страна: США
Режиссер / Телекомпания: Норберт Росинг / Enterctive Entertainment GmbH, Ton CSC-Studio, National Geographic Deutschland
Год выпуска: 2012
Жанр: Документальный, видовой, релакс

Описание:
Йеллоустоун - необычное место дикой природы. Он считается старейшим национальным парком США и представляет собой затерянный мир великих равнин, зеленых лугов и бесконечных лесов, защищенных со всех сторон величественными горами. Уникальное творение природы в котором обитают американские бизоны, медведи гризли, лоси и волки, ведущие непрерывную борьбу за выживание в этом прекрасном и в то же время суровом уголке нашей планеты.
Этот фильм, созданный из великолепных фотографий Норберта Росинга, сделанных им в Йеллоустоунском национальном заповеднике, в сопровождении завораживающей музыки, никого не оставит равнодушным...

Продолжительность: 00:43:42

Перевод: Не требуется (музыкальное сопровождение, нет диалогов и комментариев)

Видеокодек: MPEG-4 AVC/H.264
Битрейт видео: ~3,65 Мбит/сек
Размер кадра: 1280 х 720
Качество видео: BDRip [720p]
Аудиокодек: DTS 5.1 channels
Битрейт аудио: 1510 Кбит/сек
Общее
Уникальный идентификатор : 245889823919888335571452202832198783857 (0xB8FCA85150315998B8F8E3C23B0E5371)
Полное имя : A:\Релизы\NG.Yellowstone.2011.BDRip.720p.mkv
Формат : Matroska
Версия формата : Version 2
Размер файла : 1,58 Гбайт
Продолжительность : 43 м.
Общий поток : 5160 Кбит/сек
Название фильма : National.Geographic.Yellowstone.2011.BDRip.720p.[uniongang.tv]
Дата кодирования : UTC 2012-10-30 18:16:30
Программа кодирования : mkvmerge v5.3.0 ('I could have danced') built on Feb 9 2012 10:38:07
Библиотека кодирования : libebml v1.2.3 + libmatroska v1.3.0

Видео
Идентификатор : 1
Формат : AVC
Формат/Информация : Advanced Video Codec
Профиль формата : High@L4.1
Параметр CABAC формата : Да
Параметр ReFrames формата : 10 кадров
Идентификатор кодека : V_MPEG4/ISO/AVC
Продолжительность : 43 м.
Битрейт : 3650 Кбит/сек
Ширина : 1280 пикселей
Высота : 720 пикселей
Соотношение сторон : 16:9
Частота кадров : 25,000 кадров/сек
Цветовое пространство : YUV
Субдискретизация насыщенности : 4:2:0
Битовая глубина : 8 бит
Тип развёртки : Прогрессивная
Бит/(Пиксели*Кадры) : 0.158
Размер потока : 1,08 Гбайт (69%)
Заголовок : National.Geographic.Yellowstone.2011.BDRip.720p.[uniongang.tv]
Библиотека кодирования : x264 core 119 r2106 07efeb4
Настройки программы : cabac=1 / ref=10 / deblock=1:-3:-3 / analyse=0x3:0x113 / me=umh / subme=11 / psy=1 / psy_rd=0.85:0.00 / mixed_ref=1 / me_range=32 / chroma_me=1 / trellis=2 / 8x8dct=1 / cqm=0 / deadzone=21,11 / fast_pskip=0 / chroma_qp_offset=-2 / threads=6 / sliced_threads=0 / nr=0 / decimate=1 / interlaced=0 / bluray_compat=0 / constrained_intra=0 / bframes=8 / b_pyramid=2 / b_adapt=2 / b_bias=0 / direct=3 / weightb=1 / open_gop=0 / weightp=2 / keyint=250 / keyint_min=25 / scenecut=40 / intra_refresh=0 / rc=2pass / mbtree=0 / bitrate=3650 / ratetol=1.0 / qcomp=0.60 / qpmin=0 / qpmax=69 / qpstep=4 / cplxblur=20.0 / qblur=0.5 / ip_ratio=1.40 / pb_ratio=1.30 / aq=1:1.00
Язык : English
Default : Да
Forced : Нет

Аудио
Идентификатор : 2
Формат : DTS
Формат/Информация : Digital Theater Systems
Идентификатор кодека : A_DTS
Продолжительность : 43 м.
Вид битрейта : Постоянный
Битрейт : 1510 Кбит/сек
Каналы : 6 каналов
Расположение каналов : Front: L C R, Side: L R, LFE
Частота : 48,0 КГц
Битовая глубина : 24 бит
Метод сжатия : С потерями
Размер потока : 472 Мбайт (29%)
Default : Да
Forced : Нет

Меню
00:00:00.000 : en:00:00:00.000
00:04:24.960 : en:00:04:24.960
00:06:21.960 : en:00:06:21.960
00:09:28.960 : en:00:09:28.960
00:12:35.960 : en:00:12:35.960
00:14:04.960 : en:00:14:04.960
00:18:21.960 : en:00:18:21.960
00:22:38.960 : en:00:22:38.960
00:27:51.960 : en:00:27:51.960
00:32:50.960 : en:00:32:50.960
00:36:53.960 : en:00:36:53.960
00:38:50.960 : en:00:38:50.960

Скриншоты:



Пожалуйста, не уходите с раздачи - помогите докачать другим. Если понравился релиз - жмите кнопку "Спасибо"! :приветствую:

Время раздачи: 24 / 7

"Йеллоустоун / Yellowstone" на NoNaMe Club
[NNM-Club.me]_NG.Yellowstone.2011.BDRip.720p.mkv.torrent
 Торрент: Платиновая раздача  Зарегистрирован
 
Скачать


Примагнититься
 Зарегистрирован:   12 Сен 2018 08:04:15
 Размер:   1.58 GB  (
 Рейтинг:   4.9 (Голосов: 23)
 Поблагодарили:   117
 Проверка:   Оформление проверено модератором 12 Сен 2018 08:42:44
Как cкачать  ·  Как раздать  ·  Правильно оформить  ·  Поднять ратио!  
PlayStation
Стаж: 15 лет 8 мес.
Сообщений: 957
Ratio: 43.742
Поблагодарили: 943
100%
confederate.gif
сделан из фотографий ... слайдшоу на полтора гига?

_________________
PlayStation.
Real game is coming !!!
Отец Лоренцо ®
Uploader 1000+, Сталкер
Стаж: 10 лет 11 мес.
Сообщений: 4039
Ratio: 7393.141
Раздал: 1.0172 PB
Поблагодарили: 123360
100%
Откуда: Харьков, Украина
PlayStation писал(а): Перейти к сообщению
сделан из фотографий ... слайдшоу на полтора гига?

Именно. Немного анимированное, красивое, качественное HD [720p] слайдшоу на 42 минуты под красивую музыку.
В оригинальном описании информации об этом не было, но я посчитал, что будет лучше, если люди будут знать, чтО именно они качают и добавил эту фразу в конец описания. Лично я, пока делал скриншоты, с удовольствием пересмотрел почти весь фильм - но, возможно, кому-то такая форма подачи окажется не по душе. Решать вам...
dora11
Стаж: 11 лет
Сообщений: 11
Ratio: 0.15
100%
poland.gif
Год только не 2012, а 2011
Показать сообщения:   
Начать новую тему   Ответить на тему    Торрент-трекер NNM-Club -> Документалистика и Телепередачи -> Релакс / Relax Часовой пояс: GMT + 3
Страница 1 из 1