Классический форум-трекер
canvas not supported
Нас вместе: 4 233 579

Кобра / Cobra (1986) BDRip [H.264]


 
 
RSS
Начать новую тему   Ответить на тему    Торрент-трекер NNM-Club -> Классика кино и Старые фильмы до 90-х -> Зарубежная Классика (SD)
Автор Сообщение
RAIDER99 ®
Стаж: 11 лет 5 мес.
Сообщений: 130
Ratio: 51.909
Поблагодарили: 15008
100%
Откуда: Крижополь
russia.gif
Кобра / Cobra (1986) BDRip
Жанр: Боевик, Триллер, Криминал
Производство: США

Режиссер: Джордж Пан Косматос
Актеры: Сильвестр Сталлоне, Бриджитт Нильсен, Рени Сантони, Эндрю Робинсон, Брайан Томпсон, Джон Херцфелд, Ли Гарлингтон, Арт ЛаФлёр, Марко Родригес, Росс Ст. Филлип
Описание:
Он — «Кобра» — штурмовой отряд полиции из одного человека, ему достаётся кровавая работёнка, за которую никто не хочет (или не осмеливается) взяться. Он выходит на след убийцы, за которым целая армия преступников-маньяков, стремящихся уничтожить свидетельницу их кровавой вакханалии. Но, к счастью, она попадает под защиту «Кобры».

Перевод: Многоголосый закадровый (ТК "Россия"), Дублированный (Варус Видео), Двухголосый (неизвестный), Авторский одноголосый Л.Володарский, Авторский одноголосый В.Горчаков, Авторский одноголосый А.Гаврилов, Авторский одноголосый Д.Пучков "Гоблин", Дублированный (Мост-Видео)
Язык субтитров: русские, английские
Вид субтитров: Вшитые [отключаемые]
Продолжительность: 01:26:49



Дата мировой премьеры: 23 мая 1986
Дата выхода DVD релиза: сентября 2008, «Юниверсал Пикчерс Рус»
Видеокодек: MPEG-4 AVC/H.264
Битрейт видео: ~1833 Кбит/сек
Размер кадра: 1024 х 576
Качество видео: BDRip
Аудио 1: AC3 2.0, 192 Кбит/сек - Многоголосый закадровый (ТК "Россия")
Аудио 2: AC3 2.0, 192 Кбит/сек - Дублированный (Варус Видео)
Аудио 3: AC3 2.0, 192 Кбит/сек - Двухголосый (неизвестный)
Аудио 4: AC3 2.0, 192 Кбит/сек - Авторский одноголосый Л.Володарский
Аудио 5: AC3 2.0, 192 Кбит/сек - Авторский одноголосый В.Горчаков
Аудио 6: AC3 5.1, 384 Кбит/сек - Авторский одноголосый А.Гаврилов
Аудио 7: AC3 5.1, 384 Кбит/сек - Авторский одноголосый Д.Пучков "Гоблин"
Аудио 8: AC3 5.1, 384 Кбит/сек - Дублированный (Мост-Видео)
Формат : Matroska
Версия формата : Version 2
Размер файла : 2,39 Гбайт
Продолжительность : 1 ч. 26 м.
Общий поток : 3949 Кбит/сек
Дата кодирования : UTC 2013-04-28 18:30:20
Программа кодирования : mkvmerge v4.0.0 ('The Stars were mine') сборка от Jun 11 2010 23:24:27
Библиотека кодирования : libebml v1.0.0 + libmatroska v1.0.0
Attachment : Yes

Видео
Идентификатор : 1
Формат : AVC
Формат/Информация : Advanced Video Codec
Профиль формата : High@L4.1
Параметр CABAC формата : Да
Параметр ReFrames формата : 11 кадров
Идентификатор кодека : V_MPEG4/ISO/AVC
Продолжительность : 1 ч. 26 м.
Битрейт : 1833 Кбит/сек
Ширина : 1024 пикселя
Высота : 576 пикселей
Соотношение сторон : 16:9
Частота кадров : 23,976 кадра/сек
Цветовое пространство : YUV
Субдискретизация насыщенности : 4:2:0
Битовая глубина : 8 бит
Тип развёртки : Прогрессивная
Бит/(Пиксели*Кадры) : 0.130
Размер потока : 1,07 Гбайт (45%)
Библиотека кодирования : x264 core 116 r2044 392e762
Настройки программы : cabac=1 / ref=11 / deblock=1:-2:-1 / analyse=0x3:0x133 / me=umh / subme=9 / psy=1 / psy_rd=1.00:0.20 / mixed_ref=1 / me_range=32 / chroma_me=1 / trellis=2 / 8x8dct=1 / cqm=0 / deadzone=21,11 / fast_pskip=1 / chroma_qp_offset=-3 / threads=6 / sliced_threads=0 / nr=0 / decimate=1 / interlaced=0 / bluray_compat=0 / constrained_intra=0 / bframes=8 / b_pyramid=2 / b_adapt=2 / b_bias=0 / direct=3 / weightb=1 / open_gop=0 / weightp=2 / keyint=250 / keyint_min=23 / scenecut=40 / intra_refresh=0 / rc_lookahead=60 / rc=2pass / mbtree=1 / bitrate=1833 / ratetol=1.0 / qcomp=0.60 / qpmin=0 / qpmax=69 / qpstep=4 / cplxblur=20.0 / qblur=0.5 / ip_ratio=1.40 / aq=1:1.00
Default : Да
Forced : Нет

Аудио #1
Идентификатор : 2
Формат : AC-3
Формат/Информация : Audio Coding 3
Расширение режима : CM (complete main)
Идентификатор кодека : A_AC3
Продолжительность : 1 ч. 26 м.
Вид битрейта : Постоянный
Битрейт : 192 Кбит/сек
Каналы : 2 канала
Расположение каналов : Front: L R
Частота : 48,0 КГц
Битовая глубина : 16 бит
Метод сжатия : С потерями
Размер потока : 119 Мбайт (5%)
Заголовок : Многоголосый [Россия]
Язык : Russian
Default : Да
Forced : Нет

Аудио #2
Идентификатор : 3
Формат : AC-3
Формат/Информация : Audio Coding 3
Расширение режима : CM (complete main)
Идентификатор кодека : A_AC3
Продолжительность : 1 ч. 26 м.
Вид битрейта : Постоянный
Битрейт : 192 Кбит/сек
Каналы : 2 канала
Расположение каналов : Front: L R
Частота : 48,0 КГц
Битовая глубина : 16 бит
Метод сжатия : С потерями
Задержка видео : 28 мс.
Размер потока : 119 Мбайт (5%)
Заголовок : Дублированный
Язык : Russian
Default : Нет
Forced : Нет

Аудио #3
Идентификатор : 4
Формат : AC-3
Формат/Информация : Audio Coding 3
Расширение режима : CM (complete main)
Идентификатор кодека : A_AC3
Продолжительность : 1 ч. 26 м.
Вид битрейта : Постоянный
Битрейт : 192 Кбит/сек
Каналы : 2 канала
Расположение каналов : Front: L R
Частота : 48,0 КГц
Битовая глубина : 16 бит
Метод сжатия : С потерями
Размер потока : 119 Мбайт (5%)
Заголовок : Двухголосый
Язык : Russian
Default : Нет
Forced : Нет

Аудио #4
Идентификатор : 5
Формат : AC-3
Формат/Информация : Audio Coding 3
Расширение режима : CM (complete main)
Идентификатор кодека : A_AC3
Продолжительность : 1 ч. 26 м.
Вид битрейта : Постоянный
Битрейт : 192 Кбит/сек
Каналы : 2 канала
Расположение каналов : Front: L R
Частота : 48,0 КГц
Битовая глубина : 16 бит
Метод сжатия : С потерями
Размер потока : 119 Мбайт (5%)
Заголовок : Авторский одноголосый Л.Володарский
Язык : Russian
Default : Нет
Forced : Нет

Аудио #5
Идентификатор : 6
Формат : AC-3
Формат/Информация : Audio Coding 3
Расширение режима : CM (complete main)
Идентификатор кодека : A_AC3
Продолжительность : 1 ч. 26 м.
Вид битрейта : Постоянный
Битрейт : 192 Кбит/сек
Каналы : 2 канала
Расположение каналов : Front: L R
Частота : 48,0 КГц
Битовая глубина : 16 бит
Метод сжатия : С потерями
Размер потока : 119 Мбайт (5%)
Заголовок : Авторский одноголосый В.Горчаков
Default : Нет
Forced : Нет

Аудио #6
Идентификатор : 7
Формат : AC-3
Формат/Информация : Audio Coding 3
Расширение режима : CM (complete main)
Идентификатор кодека : A_AC3
Продолжительность : 1 ч. 26 м.
Вид битрейта : Постоянный
Битрейт : 384 Кбит/сек
Каналы : 6 каналов
Расположение каналов : Front: L C R, Side: L R, LFE
Частота : 48,0 КГц
Битовая глубина : 16 бит
Метод сжатия : С потерями
Задержка видео : 28 мс.
Размер потока : 238 Мбайт (10%)
Заголовок : Авторский одноголосый А.Гаврилов
Язык : Russian
Default : Нет
Forced : Нет

Аудио #7
Идентификатор : 8
Формат : AC-3
Формат/Информация : Audio Coding 3
Расширение режима : CM (complete main)
Идентификатор кодека : A_AC3
Продолжительность : 1 ч. 26 м.
Вид битрейта : Постоянный
Битрейт : 384 Кбит/сек
Каналы : 6 каналов
Расположение каналов : Front: L C R, Side: L R, LFE
Частота : 48,0 КГц
Битовая глубина : 16 бит
Метод сжатия : С потерями
Задержка видео : 28 мс.
Размер потока : 238 Мбайт (10%)
Заголовок : Авторский Д."Гоблин" Пучков
Default : Нет
Forced : Нет

Аудио #8
Идентификатор : 9
Формат : AC-3
Формат/Информация : Audio Coding 3
Расширение режима : CM (complete main)
Идентификатор кодека : A_AC3
Продолжительность : 1 ч. 26 м.
Вид битрейта : Постоянный
Битрейт : 384 Кбит/сек
Каналы : 6 каналов
Расположение каналов : Front: L C R, Side: L R, LFE
Частота : 48,0 КГц
Битовая глубина : 16 бит
Метод сжатия : С потерями
Задержка видео : 28 мс.
Размер потока : 238 Мбайт (10%)
Заголовок : Дубляж [Мост-видео]
Default : Нет
Forced : Нет

Текст #1
Идентификатор : 10
Формат : UTF-8
Идентификатор кодека : S_TEXT/UTF8
Идентификатор кодека/Информация : UTF-8 Plain Text
Язык : English
Default : Да
Forced : Нет

Текст #2
Идентификатор : 11
Формат : UTF-8
Идентификатор кодека : S_TEXT/UTF8
Идентификатор кодека/Информация : UTF-8 Plain Text
Язык : Russian
Default : Нет
Forced : Нет
Скриншоты:


Время раздачи: С 10:00 до 18:30
[NNM-Club.ru]_Kobra.1986. (S.Stallone)1.mkv.torrent
 Торрент: Платиновая раздача  Зарегистрирован
 
Скачать


Примагнититься
 Зарегистрирован:   29 Апр 2013 11:55:23
 Размер:   2.39 GB  (
 Рейтинг:   4.8 (Голосов: 109)
 Поблагодарили:   311
 Проверка:   Оформление проверено модератором 29 Апр 2013 16:40:44
Как cкачать  ·  Как раздать  ·  Правильно оформить  ·  Поднять ратио!  
mocnyjj-aleks
Стаж: 13 лет 9 мес.
Сообщений: 77
Ratio: 0.815
100%
russia.gif
первый фильм который посмотрел на видаке) сейчас пересматриваешь старые боевички и сразу ностальгия по деству
RAIDER99 ®
Стаж: 11 лет 5 мес.
Сообщений: 130
Ratio: 51.909
Поблагодарили: 15008
100%
Откуда: Крижополь
russia.gif
Обращение к качающим,если взять за сравнениями со смежными раздачами за 2 гб,то эта отличается,тем,что размер видео соответствует размеру 1.45 гб,которых на сайте нет,в MKV+ наличие весомого количества дорог,качество звуковых дорожек расчитано по приоритетам,лично моим,или в лучшем их попросту нет.Залил по причине того,что эта бюджетная сборка,составленная для себя. (для тех кто видит отличие по продолжительности,разницы в полезном видео нет,в начале урезана заставка,компании производителя)Cчитаю,что в большем объеме для себя это не тот фильм,но в данном контексте по качеству изображения и наличию дорожек самое то.Дорожки подогнаны RАIDER99.
kraven86
Стаж: 13 лет 1 мес.
Сообщений: 790
Ratio: 1.894
1.61%
russia.gif
Зачёт спасибо!!!
Georg22
Стаж: 13 лет 1 мес.
Сообщений: 11
Ratio: 0.715
20.77%
russia.gif
И вообще... один из самых лучших культовых боевиков. Классика!
milakasha
Стаж: 11 лет 7 мес.
Сообщений: 172
Ratio: 1.186
77.97%
Как сейчас помню, клеил утюгом на футболку наклейку с постера...
Показать сообщения:   
Начать новую тему   Ответить на тему    Торрент-трекер NNM-Club -> Классика кино и Старые фильмы до 90-х -> Зарубежная Классика (SD) Часовой пояс: GMT + 3
Страница 1 из 1