Классический форум-трекер
canvas not supported
Нас вместе: 4 235 225

Приключения Шаркбоя и Лавы/ The Adventures of Sharkboy and Lavagirl 3-D (2002) BDRip [480p] iPhone


 
 
RSS
Начать новую тему   Ответить на тему    Торрент-трекер NNM-Club -> Аудио и Видео -> Зарубежное видео для устройств Apple
Автор Сообщение
gekka ®
Стаж: 17 лет 5 мес.
Сообщений: 2123
Ratio: 96.255
Поблагодарили: 135379
100%
Откуда: Москва, Дорогомилово
ussr.gif
Приключения Шаркбоя и Лавы/ The Adventures of Sharkboy and Lavagirl 3-D (2002) BDRip [480p] iPhone
«Маленькие да удаленькие»


Русское название: Приключения Шаркбоя и Лавы
Оригинальное название: The Adventures of Sharkboy and Lavagirl 3-D
Год: 2005
Страна/Студия: США / © Dimension Films, Columbia Pictures Corporation, Troublemaker Studios
Жанр: фэнтези, боевик, приключения, семейный
Продолжительность: 01:33:17
Перевод: Русский дублированный
Субтитры / Язык субтитров: Английский
Навигация: по главам (с изображениями)
Рейтинг MPAA -PG
Режиссёр: Роберт Родригес
В ролях: Тэйлор Лотнер, Тэйлор Дули, Кейден Бойд, Джордж Лопез, Дэвид Аркетт, Кристин Дэвис, Джейкоб Дэвич, Саша Питерс, Рикардо Торрес, Марк Муссо

Описание: Из-за трудностей в общении со сверстниками 10-летний герой картины оказывается вынужден проводить очередные каникулы в одиночестве. Чтобы хоть как-то скрасить тяготы одинокого времяпрепровождения, он придумывает себе двух несуществующих друзей, мальчика-акулу и девочку-лаву, вместе с которыми пускается в волшебное путешествие, полное самых загадочных опасностей…

Видео: H.264, 23.976 fps, ~ 1800 кбит/сек, 640x460@852x460 (1.85:1)
Аудио:
* ААС 2.0 192 kbps - Русский дублированный
* ААС 2.0 192 kbps - Английский

Субтитры:
* 3GPP Text - Английский
Код:

Общее
Полное имя : /Users/gekkas/Movies/The Adventures of Sharkboy and Lavagirl.2005 (SD).m4v
Формат : MPEG-4
Идентификатор кодека : M4V
Размер файла : 1,43 Гбайт
Продолжительность : 1 ч. 33 м.
Режим общего битрейта : Переменный
Общий поток : 2202 Кбит/сек
Название фильма : Приключения Шаркбоя и Лавы
Исполнитель : Robert Rodriguez
Жанр : Kids & Family
Дата записи : UTC 2005-06-10 07:00:00
Дата кодирования : UTC 2013-04-29 07:43:55
Дата пометки : UTC 2013-04-29 09:48:54
Правообладатель : © Dimension Films, Columbia Pictures Corporation, Troublemaker Studios
Обложка : Yes
Примечание : «Маленькие да удаленькие»
sonm : The Adventures of Sharkboy and Lavagirl
desc : Из-за трудностей в общении со сверстниками 10-летний герой картины оказывается вынужден проводить очередные каникулы в одиночестве. Чтобы хоть как-то скрасить тяготы одинокого времяпрепровождения, он придумывает себе двух несуществующих друзей.
ldes : Из-за трудностей в общении со сверстниками 10-летний герой картины оказывается вынужден проводить очередные каникулы в одиночестве. Чтобы хоть как-то скрасить тяготы одинокого времяпрепровождения, он придумывает себе двух несуществующих друзей, мальчика-акулу и девочку-лаву, вместе с которыми пускается в волшебное путешествие, полное самых загадочных опасностей… /  / Another family adventure from the hit-making director of Spy Kids, The Adventures of Sharkboy and Lavagirl is non-stop fun and stars Hollywood favorites David Arquette, Kristin Davis, and George Lopez. Everyone always knew that Max had a wild imagination...but no one believed that his wildest creations - a boy raised by watchful great white sharks and a girl with the force of a volcano - were real! Now, these two pint-sized action masters will show Max that even an ordinary kid has what it takes to be extraordinary! Bursting with cool, eye-popping 3-D special effects- even the smallest dreamers can become the biggest heroes in this entertaining motion picture!
stik : 9
rtng : 0
akID : -1
cnID : 475864635
xid : Apple:vendor_id:2005-84201
iTunEXTC : mpaa|PG|200|
iTunMOVI : <?xml version="1.0" encoding="UTF-8"?> / <!DOCTYPE plist PUBLIC "-//Apple//DTD PLIST 1.0//EN" "http://www.apple.com/DTDs/PropertyList-1.0.dtd"> / <plist version="1.0"> / <dict> /   <key>cast</key> /   <array> /     <dict> /       <key>name</key> /       <string>Тэйлор Лотнер</string> /     </dict> /     <dict> /       <key>name</key> /       <string>Тэйлор Дули</string> /     </dict> /     <dict> /       <key>name</key> /       <string>Кейден Бойд</string> /     </dict> /     <dict> /       <key>name</key> /       <string>Джордж Лопез</string> /     </dict> /     <dict> /       <key>name</key> /       <string>Дэвид Аркетт</string> /     </dict> /     <dict> /       <key>name</key> /       <string>Кристин Дэвис</string> /     </dict> /     <dict> /       <key>name</key> /       <string>Джейкоб Дэвич</string> /     </dict> /     <dict> /       <key>name</key> /       <string>Саша Питерс</string> /     </dict> /     <dict> /       <key>name</key> /       <string>Рикардо Торрес</string> /     </dict> /     <dict> /       <key>name</key> /       <string>Марк Муссо</string> /     </dict> /   </array> /   <key>directors</key> /   <array> /     <dict> /       <key>name</key> /       <string>Роберт Родригес</string> /     </dict> /   </array> /   <key>producers</key> /   <array> /     <dict> /       <key>name</key> /       <string>Элизабет Авеллан</string> /     </dict> /     <dict> /       <key>name</key> /       <string>Билл Скотт</string> /     </dict> /     <dict> /       <key>name</key> /       <string>Боб Вайнштейн</string> /     </dict> /   </array> /   <key>screenwriters</key> /   <array> /     <dict> /       <key>name</key> /       <string>Роберт Родригес</string> /     </dict> /     <dict> /       <key>name</key> /       <string>Марсель Родригез</string> /     </dict> /     <dict> /       <key>name</key> /       <string>Рейсер Родригес</string> /     </dict> /   </array> /   <key>studio</key> /   <string>© Dimension Films, Columbia Pictures Corporation, Troublemaker Studios </string> / </dict> / </plist>
Видео #1
Идентификатор : 1
Формат : AVC
Формат/Информация : Advanced Video Codec
Профиль формата : Baseline@L3.0
Параметр CABAC формата : Нет
Параметр ReFrames формата : 2 кадра
Идентификатор кодека : avc1
Идентификатор кодека/Информация : Advanced Video Coding
Продолжительность : 1 ч. 33 м.
Битрейт : 1800 Кбит/сек
Максимальный битрейт : 6710 Кбит/сек
Ширина : 640 пикселей
Высота : 460 пикселей
Соотношение сторон : 1,85:1
Режим частоты кадров : Постоянный
Частота кадров : 23,976 кадра/сек
Цветовое пространство : YUV
Субдискретизация насыщенности : 4:2:0
Битовая глубина : 8 бит
Тип развёртки : Прогрессивная
Бит/(Пиксели*Кадры) : 0.255
Размер потока : 1,17 Гбайт (82%)
Библиотека кодирования : x264 core 129 r2245+704+36 8e61944 tMod+MixAQ [8-bit@all X86_64]
Настройки программы : cabac=0 / ref=2 / deblock=1:-1:-1 / analyse=0x1:0x131 / me=umh / subme=7 / psy=1 / fade_compensate=1.00 / psy_rd=1.00:0.15 / mixed_ref=1 / me_range=32 / chroma_me=1 / trellis=2 / 8x8dct=0 / cqm=0 / deadzone=21,11 / fast_pskip=0 / chroma_qp_offset=-3 / threads=12 / lookahead_threads=2 / sliced_threads=0 / nr=0 / decimate=0 / interlaced=0 / bluray_compat=0 / constrained_intra=0 / fgo=2 / bframes=0 / weightp=0 / keyint=250 / keyint_min=23 / scenecut=40 / intra_refresh=0 / rc_lookahead=120 / rc=2pass / mbtree=1 / bitrate=1800 / ratetol=1.0 / qcomp=0.70 / qpmin=0 / qpmax=69 / qpstep=4 / cplxblur=20.0 / qblur=0.5 / vbv_maxrate=5000 / vbv_bufsize=5000 / nal_hrd=none / ip_ratio=1.40 / aq=1 / aq-strength=0.90 / aq-sensitivity=10.00 / aq-ifactor=1.00 / aq-pfactor=1.00 / aq-bfactor=1.00 / aq2=0
Язык : English
Дата кодирования : UTC 2013-04-29 07:43:55
Дата пометки : UTC 2013-04-29 07:44:04
Коэффициенты матрицы : BT.709
Видео #2
Идентификатор : 5
Формат : JPEG
Идентификатор кодека : jpeg
Продолжительность : 1 ч. 33 м.
Вид битрейта : Переменный
Битрейт : 1480 бит/сек
Ширина : 640 пикселей
Высота : 346 пикселей
Соотношение сторон : 1,85:1
Режим частоты кадров : Переменный
Частота кадров : 0,003 кадр/сек
Минимальная частота кадров : 0,002 кадр/сек
Максимальная частота кадров : 0,016 кадр/сек
Цветовое пространство : YUV
Субдискретизация насыщенности : 4:2:0
Битовая глубина : 8 бит
Метод сжатия : С потерями
Бит/(Пиксели*Кадры) : 2.228
Размер потока : 1,06 Мбайт (0%)
Язык : English
Дата кодирования : UTC 2013-04-29 09:46:39
Дата пометки : UTC 2013-04-29 09:48:53
Аудио #1
Идентификатор : 2
Формат : AAC
Формат/Информация : Advanced Audio Codec
Профиль формата : LC
Идентификатор кодека : 40
Продолжительность : 1 ч. 33 м.
Вид битрейта : Переменный
Битрейт : 198 Кбит/сек
Максимальный битрейт : 239 Кбит/сек
Каналы : 2 канала
Расположение каналов : Front: L R
Частота : 48,0 КГц
Метод сжатия : С потерями
Размер потока : 132 Мбайт (9%)
Язык : Russian
Дата кодирования : UTC 2013-04-29 09:46:39
Дата пометки : UTC 2013-04-29 09:47:59
Аудио #2
Идентификатор : 3
Формат : AAC
Формат/Информация : Advanced Audio Codec
Профиль формата : LC
Идентификатор кодека : 40
Продолжительность : 1 ч. 33 м.
Вид битрейта : Переменный
Битрейт : 198 Кбит/сек
Максимальный битрейт : 240 Кбит/сек
Каналы : 2 канала
Расположение каналов : Front: L R
Частота : 48,0 КГц
Метод сжатия : С потерями
Размер потока : 132 Мбайт (9%)
Язык : English
Дата кодирования : UTC 2013-04-29 09:46:39
Дата пометки : UTC 2013-04-29 09:48:53
Текст #1
Идентификатор : 4
Формат : Timed text
Режим смешивания : sbtl
Идентификатор кодека : tx3g
Продолжительность : 1 ч. 31 м.
Вид битрейта : Переменный
Битрейт : 69 бит/сек
Размер потока : 46,3 Кбайт (0%)
Язык : English
Дата кодирования : UTC 2013-04-29 09:46:39
Дата пометки : UTC 2013-04-29 09:48:53
Текст #2
Идентификатор : 6
Формат : Apple text
Идентификатор кодека : text
Продолжительность : 1 ч. 33 м.
Вид битрейта : Постоянный
Битрейт : 1 бит/сек
Размер потока : 468 байт (0%)
Язык : English
Дата кодирования : UTC 2013-04-29 09:48:53
Дата пометки : UTC 2013-04-29 09:48:53
Меню
00:00:00.000 : 00:00:00.000
00:05:28.078 : 00:05:28.078
00:12:52.772 : 00:12:52.772
00:18:44.332 : 00:18:44.332
00:22:05.074 : 00:22:05.074
00:27:37.573 : 00:27:37.573
00:34:27.691 : 00:34:27.691
00:40:04.360 : 00:40:04.360
00:44:26.956 : 00:44:26.956
00:47:49.450 : 00:47:49.450
00:50:36.158 : 00:50:36.158
00:53:37.714 : 00:53:37.714
01:01:28.643 : 01:01:28.643
01:08:08.418 : 01:08:08.418
01:13:30.239 : 01:13:30.239
01:18:55.356 : 01:18:55.356
01:25:58.111 : 01:25:58.111
01:26:59.798 : 01:26:59.798
Скриншоты:


За исходник спасибо: BLUEBIRD -
[NNM-Club.ru]_The Adventures of Sharkboy and Lavagirl.2005 (SD).torrent
 Торрент: Платиновая раздача  Зарегистрирован
 
Скачать


 Зарегистрирован:   29 Апр 2013 12:59:24
 Размер:   1.43 GB  (
 Рейтинг:    (Голосов: 9)
 Поблагодарили:   40
 Проверка:   Оформление проверено модератором 29 Апр 2013 15:20:13
Как cкачать  ·  Как раздать  ·  Правильно оформить  ·  Поднять ратио!  

_________________
My make-up may be flaking, but my smile still stays on.
Алексей Дегтярёв
Стаж: 4 года 7 мес.
Сообщений: 7
Ratio: 1.349
100%
Спасибо. Давно искали
Показать сообщения:   
Начать новую тему   Ответить на тему    Торрент-трекер NNM-Club -> Аудио и Видео -> Зарубежное видео для устройств Apple Часовой пояс: GMT + 3
Страница 1 из 1