Классический форум-трекер
canvas not supported
Нас вместе: 4 234 400

Benea Reach - Possession (2013) [FLAC|Lossless]<Progressive Death Metal/Metalcore>


 
 
RSS
Начать новую тему   Ответить на тему    Торрент-трекер NNM-Club -> Rock, Alternative, Punk, Metal -> Metal (Lossless)
Автор Сообщение
_cynic_ ®
Стаж: 15 лет 9 мес.
Сообщений: 1603
Ratio: 1118.816
Поблагодарили: 72951
100%
Откуда: 61
pirates.png
Benea Reach - Possession (2013)
Год: 2013
Жанр: Progressive Death Metal/Metalcore
Продолжительность: 00:50:12
Страна: Norway
Кодек: FLAC (image+.cue)
Битрейт: Lossless
Рип: Unhealer
Трек лист:

01. Woodland (5:24)
02. The Mountain (3:20)
03. Desolate (4:04)
04. Nocturnal (4:07)
05. Crown (5:40)
06. Empire (4:09)
07. Shedding Skin (5:09)
08. Fallen (4:10)
09. Constellation (3:45)
10. The Dark (5:21)
11. Aura (5:00)

Код: выделить все

Exact Audio Copy V1.0 beta 3 from 29. August 2011

EAC extraction logfile from 14. May 2013, 18:13

Benea Reach   / Possession

Used drive  : SONY    DVD RW DRX-S70U   Adapter: 0  ID: 0

Read mode               : Secure
Utilize accurate stream : Yes
Defeat audio cache      : Yes
Make use of C2 pointers : No

Read offset correction                      : 48
Overread into Lead-In and Lead-Out          : No
Fill up missing offset samples with silence : Yes
Delete leading and trailing silent blocks   : No
Null samples used in CRC calculations       : Yes
Used interface                              : Native Win32 interface for Win NT & 2000

Used output format              : User Defined Encoder
Selected bitrate                : 1024 kBit/s
Quality                         : High
Add ID3 tag                     : No
Command line compressor         : F:\Program Files (x86)\Exact Audio Copy\Flac\flac.exe
Additional command line options : -V -8 -T "Date=%year%" -T "Genre=%genre%" %source%

TOC of the extracted CD

     Track |   Start  |  Length  | Start sector | End sector
    ---------------------------------------------------------
        1  |  0:00.00 |  5:24.49 |         0    |    24348
        2  |  5:24.49 |  3:20.16 |     24349    |    39364
        3  |  8:44.65 |  4:04.29 |     39365    |    57693
        4  | 12:49.19 |  4:07.28 |     57694    |    76246
        5  | 16:56.47 |  5:40.66 |     76247    |   101812
        6  | 22:37.38 |  4:09.13 |    101813    |   120500
        7  | 26:46.51 |  5:09.05 |    120501    |   143680
        8  | 31:55.56 |  4:10.33 |    143681    |   162463
        9  | 36:06.14 |  3:45.15 |    162464    |   179353
       10  | 39:51.29 |  5:21.29 |    179354    |   203457
       11  | 45:12.58 |  4:59.73 |    203458    |   225955

Range status and errors

Selected range

     Filename H:\LOSSLESS\Benea Reach\2013 - Possession\Benea Reach   - Possession.wav

     Peak level 100.0 %
     Extraction speed 4.6 X
     Range quality 100.0 %
     Test CRC 05B55D48
     Copy CRC 05B55D48
     Copy OK

No errors occurred

AccurateRip summary

Track  1  accurately ripped (confidence 1)  [2E4DE0C5]  (AR v2)
Track  2  accurately ripped (confidence 1)  [65A6D0CD]  (AR v2)
Track  3  accurately ripped (confidence 1)  [37BB7D8B]  (AR v2)
Track  4  accurately ripped (confidence 1)  [8A2DBF8B]  (AR v2)
Track  5  accurately ripped (confidence 1)  [753C7661]  (AR v2)
Track  6  accurately ripped (confidence 1)  [08FBA6DC]  (AR v2)
Track  7  accurately ripped (confidence 1)  [F50194BA]  (AR v2)
Track  8  accurately ripped (confidence 1)  [35398AF3]  (AR v2)
Track  9  accurately ripped (confidence 1)  [367C55EC]  (AR v2)
Track 10  accurately ripped (confidence 1)  [DFFA92D5]  (AR v2)
Track 11  accurately ripped (confidence 1)  [C32E7A2A]  (AR v2)

All tracks accurately ripped

End of status report

==== Log checksum 0DA559BDBA5AD89163604D723AF60915AB0A26A14ABE25E28CBCFB719C85A103 ====

Код: выделить все

AUDIOCHECKER v2.0 beta (build 457) - by Dester - opdester@freemail.hu
~~~~~~~~~~~~~~~~~~~~~~~~~~~~~~~~~~
-=== DO NOT EDIT THIS FILE! ===-

Path: ...\Benea Reach   - Possession [2013]

1 -=- Benea Reach   - Possession.flac -=- CDDA (100%)

263703732

Время раздачи: с 00:00 до первых 5 скачавших

Конкурс: "Майские каникулы на NNM-Club в Lossless и HD формате!"


Поглощение/вытеснение
Только с согласия релизера

J_Man
[NNM-Club.ru]_Benea Reach - Possession [2013].torrent
 Торрент: Платиновая раздача  Зарегистрирован
 
Скачать


Примагнититься
 Зарегистрирован:   04 Июл 2022 22:14:19
 Размер:   400 MB  (
 Рейтинг:   4.7 (Голосов: 14)
 Поблагодарили:   42
 Проверка:   Оформление проверено модератором 05 Июл 2022 19:36:40
Как cкачать  ·  Как раздать  ·  Правильно оформить  ·  Поднять ратио!  
Показать сообщения:   
Начать новую тему   Ответить на тему    Торрент-трекер NNM-Club -> Rock, Alternative, Punk, Metal -> Metal (Lossless) Часовой пояс: GMT + 3
Страница 1 из 1