Классический форум-трекер
canvas not supported
Нас вместе: 4 210 556

Зима в Йеллоустоуне / Winter In Yellowstone (2006) HDTVRip [H.264/720p-LQ]


 
 
RSS
Начать новую тему   Ответить на тему    Торрент-трекер NNM-Club -> Документалистика и Телепередачи -> Живая природа
Автор Сообщение
Отец Лоренцо ®
Uploader 1000+, Сталкер
Стаж: 10 лет 11 мес.
Сообщений: 4039
Ratio: 7393.141
Раздал: 1.0172 PB
Поблагодарили: 123360
100%
Откуда: Харьков, Украина
Зима в Йеллоустоуне / Winter In Yellowstone (2006) HDTVRip [H.264/720p-LQ]
Производство: США, Thirteen/Wnet New York, Educational Broacasting Corporation
Год выпуска: 2006
Жанр: Документальный, Природа

Описание: Йеллоустоунский Национальный парк США - один из объектов мирового наследия, охраняемый ЮНЕСКО. Посмотреть на дикий мир природы сюда приезжают сотни и тысячи людей. Но не зимой... В это время года животный мир парка полностью предоставлен себе.

Продолжительность: 00:51:57
Качество видео: HDTVRip [720p-LQ]
Перевод: Одноголосый закадровый (профессиональный)

Видеокодек: MPEG-4 AVC/H.264, 1280x720, ~3747 Кбит/с
Аудио: MP3, 2 ch, 192 Кбит/с

Скриншоты:
/// удалены фотохостингом ... от скачавших требуется помощь в реставрации - 4 PNG скриншота и сообщение модератору ///
Код: выделить все

Общее
Уникальный идентификатор                 : 187137996760163009167443323134655723132 (0x8CC9779868522578962307BB12B9F67C)
Полное имя                               : A:\Релизы\Winter.in.Yellowstone.2006.HDTVRip.720.mkv
Формат                                   : Matroska
Версия формата                           : Version 2
Размер файла                             : 1,43 Гбайт
Продолжительность                        : 51 м.
Режим общего битрейта                    : Переменный
Общий поток                              : 3954 Кбит/сек
Дата кодирования                         : UTC 2010-09-18 17:53:24
Программа кодирования                    : mkvmerge v3.1.0 ('Happy up here') built on Jan 19 2010 12:09:24
Библиотека кодирования                   : libebml v0.7.9 + libmatroska v0.8.1

Видео
Идентификатор                            : 1
Формат                                   : AVC
Формат/Информация                        : Advanced Video Codec
Профиль формата                          : High@L4.0
Параметр CABAC формата                   : Да
Параметр ReFrames формата                : 8 кадров
Идентификатор кодека                     : V_MPEG4/ISO/AVC
Продолжительность                        : 51 м.
Битрейт                                  : 3747 Кбит/сек
Ширина                                   : 1280 пикселей
Высота                                   : 720 пикселей
Соотношение сторон                       : 16:9
Частота кадров                           : 25,000 кадров/сек
Цветовое пространство                    : YUV
Субдискретизация насыщенности            : 4:2:0
Битовая глубина                          : 8 бит
Тип развёртки                            : Прогрессивная
Бит/(Пиксели*Кадры)                      : 0.163
Размер потока                            : 1,33 Гбайт (93%)
Библиотека кодирования                   : x264 core 79 r1342kMod e8501ef
Настройки программы                      : cabac=1 / ref=8 / deblock=1:-1:-1 / analyse=0x3:0x133 / me=umh / subme=7 / psy=1 / psy_rd=1.0:0.1 / mixed_ref=1 / me_range=16 / chroma_me=1 / trellis=2 / 8x8dct=1 / cqm=0 / deadzone=21,11 / chroma_qp_offset=-3 / threads=6 / nr=0 / decimate=1 / mbaff=0 / constrained_intra=0 / bframes=3 / b_pyramid=0 / b_adapt=2 / b_bias=0 / direct=3 / wpredb=1 / wpredp=2 / keyint=250 / keyint_min=25 / scenecut=40 / rc_lookahead=50 / rc=2pass / mbtree=1 / bitrate=3747 / ratetol=1.0 / qcomp=0.60 / qpmin=10 / qpmax=51 / qpstep=4 / cplxblur=20.0 / qblur=0.5 / ip_ratio=1.40 / aq=1:1.00
Default                                  : Да
Forced                                   : Нет

Аудио
Идентификатор                            : 2
Формат                                   : MPEG Audio
Версия формата                           : Version 1
Профиль формата                          : Layer 3
Режим                                    : Joint stereo
Расширение режима                        : MS Stereo
Идентификатор кодека                     : A_MPEG/L3
Идентификатор кодека/Подсказка           : MP3
Продолжительность                        : 51 м.
Вид битрейта                             : Переменный
Битрейт                                  : 206 Кбит/сек
Номинальный битрейт                      : 192 Кбит/сек
Каналы                                   : 2 канала
Частота                                  : 48,0 КГц
Метод сжатия                             : С потерями
Размер потока                            : 76,5 Мбайт (5%)
Библиотека кодирования                   : LAME3.90.
Настройки программы                      : -m j -V 4 -q 2 -lowpass 19.6 --abr 192
Язык                                     : Russian
Default                                  : Да
Forced                                   : Нет
Пожалуйста, не уходите с раздачи - помогите докачать другим. Если понравился релиз - жмите кнопку "Спасибо"! :приветствую:

Время раздачи: 24 / 7

"Зима в Йеллоустоуне / Winter In Yellowstone" на NoNaMe Club
[NNM-Club.ru]_Winter.in.Yellowstone.2006.HDTVRip.720.mkv.torrent
 Торрент:   Зарегистрирован
 
Зарегистрируйтесь и скачайте торрент!
14.5 KB
Free Leech
 Зарегистрирован:   15 Май 2013 20:34:15
 Размер:   1.43 GB  (
 Рейтинг:   4.8 (Голосов: 13)
 Поблагодарили:   69
 Проверка:   Оформление проверено модератором 15 Май 2013 20:36:07
Как cкачать  ·  Как раздать  ·  Правильно оформить  ·  Поднять ратио!  
Показать сообщения:   
Начать новую тему   Ответить на тему    Торрент-трекер NNM-Club -> Документалистика и Телепередачи -> Живая природа Часовой пояс: GMT + 3
Страница 1 из 1