Классический форум-трекер
canvas not supported
Нас вместе: 4 196 517

IMAX. Рожденные на воле / Born to Be Wild (2011) BDRip 3D [H.264/1080p] Вертикальная анаморфная стереопара


 
 
RSS
Начать новую тему   Ответить на тему    Торрент-трекер NNM-Club -> Документалистика и Телепередачи -> Живая природа
Автор Сообщение
-Пионер- ®
Стаж: 12 лет 2 мес.
Сообщений: 73
Ratio: 34.092
Поблагодарили: 4384
100%
IMAX. Рожденные на воле / Born to Be Wild (2011) BDRip 3D [H.264/1080p] Вертикальная анаморфная стереопара
Русское название: Рожденные на воле
Оригинальное название: Born to Be Wild
Режиссер: Дэвид Ликли
В ролях: Морган Фриман, Бируте Галдикас, Дафна Шелдрик, Крис Фрайс
Год выпуска: 2011
Жанр: Документальный, видовой

Описание:
Две удивительные и трогательные истории о том, как осиротевшие дикие животные растут, готовясь к взрослой жизни, при преданной поддержке неординарных людей. В тропических лесах Борнео знаменитый приматолог доктор Бирут Гальдикас занимается реабилитацией детёныша орангутангов, а на засушливых саваннах Кении зоолог Дэйм Дафна Шелдрик помогает слонёнку вернуться обратно в дикую природу.


Продолжительность: 00:40:47
Перевод: Дублированный

Видеокодек: MPEG-4 AVC/H.264
Битрейт видео: ~19000 кbps
Формат 3D: Half OverUnder / Вертикальная анаморфная стереопара [левый (верхний) ракурс первый]
Размер кадра: 1920х1080
Качество видео: BDRip [1080p]
Аудио 1: AC3, Russian, 5.1 channels, 384 kbps
Аудио 2: AC3, English, 5.1 channels, 640 kbps

Проверено на встроенном плейере ТВ Samsung UE46ES7207
General
Unique ID : 206858462719131189115926015568318485820 (0x9B9F7DA273AC9366BA06BFD6D726D53C)
Complete name : D:\Downloads\Документальные фильмы 3D\Рожденные на воле.2011.1080p.3D.mkv
Format : Matroska
Format version : Version 4 / Version 2
File size : 5.83 GiB
Duration : 40mn 49s
Overall bit rate : 20.5 Mbps
Encoded date : UTC 2013-05-24 15:33:04
Writing application : mkvmerge v6.2.0 ('Promised Land') built on Apr 28 2013 12:22:01
Writing library : libebml v1.3.0 + libmatroska v1.4.0

Video
ID : 1
Format : AVC
Format/Info : Advanced Video Codec
Format profile : High@L4.1
Format settings, CABAC : Yes
Format settings, ReFrames : 4 frames
Codec ID : V_MPEG4/ISO/AVC
Duration : 40mn 49s
Bit rate : 19.0 Mbps
Width : 1 920 pixels
Height : 1 080 pixels
Display aspect ratio : 16:9
Frame rate mode : Constant
Frame rate : 23.976 fps
Color space : YUV
Chroma subsampling : 4:2:0
Bit depth : 8 bits
Scan type : Progressive
Bits/(Pixel*Frame) : 0.383
Stream size : 5.42 GiB (93%)
Writing library : x264 core 132 r2310 76a5c3a
Encoding settings : cabac=1 / ref=4 / deblock=1:-3:-3 / analyse=0x3:0x113 / me=umh / subme=10 / psy=1 / psy_rd=1.00:0.15 / mixed_ref=1 / me_range=32 / chroma_me=1 / trellis=2 / 8x8dct=1 / cqm=0 / deadzone=21,11 / fast_pskip=1 / chroma_qp_offset=-3 / threads=12 / lookahead_threads=1 / sliced_threads=0 / nr=0 / decimate=1 / interlaced=0 / bluray_compat=0 / constrained_intra=0 / bframes=6 / b_pyramid=2 / b_adapt=2 / b_bias=0 / direct=3 / weightb=1 / open_gop=0 / weightp=2 / keyint=250 / keyint_min=23 / scenecut=40 / intra_refresh=0 / rc_lookahead=60 / rc=crf / mbtree=1 / crf=17.5 / qcomp=0.60 / qpmin=0 / qpmax=69 / qpstep=4 / vbv_maxrate=40000 / vbv_bufsize=30000 / crf_max=0.0 / nal_hrd=none / frame-packing=4 / ip_ratio=1.40 / aq=1:1.00
Language : English
Default : Yes
Forced : No

Audio #1
ID : 2
Format : AC-3
Format/Info : Audio Coding 3
Mode extension : CM (complete main)
Format settings, Endianness : Big
Codec ID : A_AC3
Duration : 40mn 49s
Bit rate mode : Constant
Bit rate : 384 Kbps
Channel(s) : 6 channels
Channel positions : Front: L C R, Side: L R, LFE
Sampling rate : 48.0 KHz
Bit depth : 16 bits
Compression mode : Lossy
Stream size : 112 MiB (2%)
Title : AC3, Russian, 5.1 channels, 384kbps, 48kHz, Дубляж
Language : Russian
Default : Yes
Forced : No

Audio #2
ID : 3
Format : AC-3
Format/Info : Audio Coding 3
Mode extension : CM (complete main)
Format settings, Endianness : Big
Codec ID : A_AC3
Duration : 40mn 49s
Bit rate mode : Constant
Bit rate : 640 Kbps
Channel(s) : 6 channels
Channel positions : Front: L C R, Side: L R, LFE
Sampling rate : 48.0 KHz
Bit depth : 16 bits
Compression mode : Lossy
Stream size : 187 MiB (3%)
Title : AC3, English, 5.1 channels, 640kbps, 48kHz
Language : English
Default : No
Forced : No

Menu
00:00:00.000 : :00:00:00.000
00:10:03.770 : :00:10:03.770
00:19:19.700 : :00:19:19.700
00:29:32.896 : :00:29:32.896
00:39:07.887 : :00:39:07.887
Скриншоты:


Время раздачи: с 10:00 до 23:00

"Рожденные на воле" на NoNaMe Club
[NNM-Club.ru]_Rozhdennyie na vole.2011.1080p.3D.mkv.torrent
 Торрент: Платиновая раздача  Зарегистрирован
 
Скачать


Примагнититься
 Зарегистрирован:   24 Май 2013 19:34:58
 Размер:   5.83 GB  (
 Рейтинг:   4.9 (Голосов: 31)
 Поблагодарили:   118
 Проверка:   Оформление проверено модератором 27 Май 2013 09:34:53
Как cкачать  ·  Как раздать  ·  Правильно оформить  ·  Поднять ратио!  
triple
Стаж: 13 лет 3 мес.
Сообщений: 22
Ratio: 4.192
1.72%
ukraine.gif
спасиба

_________________
30 мб х 30 мб
soulmekanik
Стаж: 9 лет 1 мес.
Сообщений: 10
Ratio: 20.644
100%
Раздайте!

_________________
nick_n0_name
Стаж: 7 лет 7 мес.
Сообщений: 33
100%
Замечательно, спасибо огромное:)!
Показать сообщения:   
Начать новую тему   Ответить на тему    Торрент-трекер NNM-Club -> Документалистика и Телепередачи -> Живая природа Часовой пояс: GMT + 3
Страница 1 из 1