Классический форум-трекер
canvas not supported
Нас вместе: 4 234 985

Фома Гордеев (1959) DVDRip


 
 
RSS
Начать новую тему   Ответить на тему    Торрент-трекер NNM-Club -> Архив торрентов -> Архив Классики кино и Старых фильмов до 90-х
Автор Сообщение
ornellit ®
Стаж: 14 лет 7 мес.
Сообщений: 1776
Ratio: 343.874
Поблагодарили: 105241
100%
ukraine.gif
Фома Гордеев (1959) DVDRip
Русское название: Фома Гордеев
Год выпуска: 1959
Жанр: Драма
Выпущено: к/ст им. М. Горького, СССР

Описание фильма:
По мотивам романа М. Горького.
Главный герой унаследовал от отца солидное состояние и семейное дело. Он пытается достойно продолжить коммерческую деятельность и приумножить нажитый отцом капитал, но мир дельцов чужд ему. Его горячая мечтательная натура подсказывает, что счастье не измеряется количеством денег. Ему претят грязь и несправедливость окружающей жизни. Он пытается найти свое место в ней, но это оказывается непросто. Фома ищет утешение в пьяном разгуле и диких выходках...

Режиссер: Марк Донской
Актеры: Георгий Епифанцев, Сергей Лукьянов, Марина Стриженова, Павел Тарасов, А. Лабецкая, М. Милкова, Игорь Сретенский, Григорий Сергеев, Исай Гуров, Борис Ситко, Борис Андреев, Анатолий Соловьев, Александр Тимонтаев, Любовь Соколова, Сергей Троицкий

Продолжительность: 01:33:49



Видеокодек: XviD
Битрейт видео: ~1885 Кбит/сек
Размер кадра: 720 x 560
Качество видео: DVDRip
Аудиокодек: AC3 2.0
Битрейт аудио: 192 Кбит/сек
Общее
Полное имя : Фома Гордеев.1959.DVDRip.avi
Формат : AVI
Формат/Информация : Audio Video Interleave
Размер файла : 1,37 Гбайт
Продолжительность : 1 ч. 33 м.
Общий поток : 2087 Кбит/сек
Название фильма : Фома Гордеев (1959)
Кодирование произвёл : ©2010 by AlexPAINter
Жанр : драма
Тема : DVDRip
Ограничения прав : G / без ограничений
Дата записи : 1959
Программа кодирования : AVISynth 2.58 / VirtualDubMod 1.5.10.2 (build 2542)
Формат оригинала/Имя : фильм

Видео
Идентификатор : 0
Формат : MPEG-4 Visual
Профиль формата : Advanced Simple@L5
Параметр BVOP формата : 2
Параметр QPel формата : Нет
Параметр GMC формата : Без точки перехода
Параметр матрицы формата : Default (H.263)
Режим смешивания : Сжатый битовый поток
Идентификатор кодека : XVID
Идентификатор кодека/Подсказка : XviD
Продолжительность : 1 ч. 33 м.
Битрейт : 1885 Кбит/сек
Ширина : 720 пикселей
Высота : 560 пикселей
Соотношение сторон : 1,286
Частота кадров : 25,000 кадров/сек
Цветовое пространство : YUV
Субдискретизация насыщенности : 4:2:0
Битовая глубина : 8 бит
Тип развёртки : Прогрессивная
Метод сжатия : С потерями
Бит/(Пиксели*Кадры) : 0.187
Размер потока : 1,24 Гбайт (90%)
Библиотека кодирования : XviD 1.2.1 (UTC 2008-12-04)

Аудио
Идентификатор : 1
Формат : AC-3
Формат/Информация : Audio Coding 3
Расширение режима : CM (complete main)
Параметр Endianness формата : Big
Идентификатор кодека : 2000
Продолжительность : 1 ч. 33 м.
Вид битрейта : Постоянный
Битрейт : 192 Кбит/сек
Каналы : 2 канала
Расположение каналов : Front: L R
Частота : 48,0 КГц
Битовая глубина : 16 бит
Метод сжатия : С потерями
Задержка видео : 120 мс.
Размер потока : 129 Мбайт (9%)
Выравнивание : Разделение по промежуткам
Продолжительность промежутка : 40 мс. (1,00 видеокадр)
Время предзагрузки промежутка : 500 мс.
Язык : Русский
Кадры:

Время раздачи: С 13:00 до 21:00 (до 5 скачавших)
Приятного просмотра!
[NNM-Club.ru]_Foma Gordeev.1959.DVDRip.avi.torrent
 Торрент: Платиновая раздача  Зарегистрирован
 
Скачать


Примагнититься
 Зарегистрирован:   25 Май 2013 16:44:56
 Размер:   1.37 GB  (
 Рейтинг:   4.6 (Голосов: 29)
 Поблагодарили:   85
 Проверка:   Оформление проверено модератором 25 Май 2013 21:53:39
Как cкачать  ·  Как раздать  ·  Правильно оформить  ·  Поднять ратио!  
BurgerKing
Стаж: 13 лет 11 мес.
Сообщений: 963
Ratio: 4.173
100%
russia.gif
в таком ракурсе николу теслу напомнил)
STMERC
Стаж: 13 лет 8 мес.
Сообщений: 302
Ratio: 3.554
100%
Откуда: Красноярский край
russia.gif
отличный фильм! актуален в наше время
Топик был перенесен из форума Отечественная Классика (SD) в форум Архив Классики кино и Старых фильмов до 90-х

Причина переноса: Длительное отсутствие сида на протяжении более 6 месяцев.

Исправил релиз - напиши ЛС Alone_Kedr, дав ссылку на релиз.
Если нет ответа 24 часа - нажми на кнопку "Обратить внимание модераторов".
Показать сообщения:   
Начать новую тему   Ответить на тему    Торрент-трекер NNM-Club -> Архив торрентов -> Архив Классики кино и Старых фильмов до 90-х Часовой пояс: GMT + 3
Страница 1 из 1