Классический форум-трекер
canvas not supported
Нас вместе: 4 232 305

Шутки в сторону / De l'autre cote du periph (2012) HDRip [Line]


 
 
RSS
Начать новую тему   Ответить на тему    Торрент-трекер NNM-Club -> Архив торрентов -> Архив Видео. Кино, Театра
Автор Сообщение
eXPpectant ®
Стаж: 14 лет 5 мес.
Сообщений: 2457
Ratio: 1628.264
Раздал: 18.08 TB
Поблагодарили: 308034
100%
Откуда: Нижний Тагил + Дмитров
russia.gif
Шутки в сторону / De l'autre cote du periph (2012) HDRip
Русское название: Шутки в сторону
Оригинальное название: De l'autre cote du periph
Год выпуска: 2012
Производство: Франция / Mandarin Films, Mars Films, M6 Films
Жанр: Комедия, криминал, детектив
Перевод: Дублированный (чистый звук)
Субтитры: Отсутствуют
Дата мировой премьеры: 19 декабря 2012
Дата российской премьеры: 9 мая 2013, «Экспонента», «Арена»
Дата выхода DVD-релиза: Июнь 2013, «Новый Диск»
Режиссер: Давид Шарон
Продюсер: Эрик Альтмайер, Николас Альтмайер
Актеры: Омар Си, Лоран Лафитт, Сабрина Уазани, Лионель Абелански, Юсеф Хаджди, Максим Мотт, Лео Леотье, Андре Маркон, Забу Брайтман, Патрик Боннель
Описание фильма:
Усман, дерзкий коп из парижского пригорода, и Франсуа, амбициозный столичный полицейский, объединяют усилия в расследовании убийства жены большого чиновника. Усман и Франсуа — разные. Усман живет по законам комедий с Эдди Мерфи, Франсуа обожает Бельмондо в «Профессионале» и «Смертельное оружие». Но расхождение в киновкусах — ничто, когда на кону громкое разоблачение коррупции в самых верхах и, конечно, дружба! Один плюс один = команда, а шутки — в сторону!

Продолжительность: 01:34:44
Качество видео: HDRip
Видеокодек: Xvid
Битрейт видео: ~894 kb/s
Размер кадра: 640x272
Аудиокодек: MP3 (2 ch)
Битрейт аудио: 128 kb/s
Общее
Полное имя : D:\Торрент раздача\Shutki.v.storonu.2012.D.HDRip.700MB.avi
Формат : AVI
Формат/Информация : Audio Video Interleave
Размер файла : 699 Мбайт
Продолжительность : 1 ч. 34 м.
Общий поток : 1032 Кбит/сек
Программа кодирования : VirtualDubMod 1.5.10.2 (build 2540/release)
Библиотека кодирования : VirtualDubMod build 2540/release

Видео
Идентификатор : 0
Формат : MPEG-4 Visual
Профиль формата : Advanced Simple@L5
Параметр BVOP формата : 2
Параметр QPel формата : Нет
Параметр GMC формата : Без точки перехода
Параметр матрицы формата : Default (MPEG)
Идентификатор кодека : XVID
Идентификатор кодека/Подсказка : XviD
Продолжительность : 1 ч. 34 м.
Битрейт : 895 Кбит/сек
Ширина : 640 пикселей
Высота : 272 пикселя
Соотношение сторон : 2,35:1
Частота кадров : 24,000 кадра/сек
Цветовое пространство : YUV
Субдискретизация насыщенности : 4:2:0
Битовая глубина : 8 бит
Тип развёртки : Прогрессивная
Метод сжатия : С потерями
Бит/(Пиксели*Кадры) : 0.214
Размер потока : 606 Мбайт (87%)
Библиотека кодирования : XviD 1.2.1 (UTC 2008-12-04)

Аудио
Идентификатор : 1
Формат : MPEG Audio
Версия формата : Version 1
Профиль формата : Layer 3
Режим : Joint stereo
Идентификатор кодека : 55
Идентификатор кодека/Подсказка : MP3
Продолжительность : 1 ч. 34 м.
Вид битрейта : Постоянный
Битрейт : 128 Кбит/сек
Каналы : 2 канала
Частота : 48,0 КГц
Метод сжатия : С потерями
Размер потока : 86,7 Мбайт (12%)
Выравнивание : Соединение по промежуткам
Продолжительность промежутка : 42 мс. (1,00 видеокадр)
Время предзагрузки промежутка : 504 мс.
Библиотека кодирования : LAME3.99r
Настройки программы : -m j -V 4 -q 2 -lowpass 17 -b 128
Скриншоты:


Время раздачи: 24/7
[NNM-Club.ru]_Shutki.v.storonu.2012.D.HDRip.700MB.torrent
 Торрент: Платиновая раздача  Зарегистрирован
 
Скачать


Примагнититься
 Зарегистрирован:   26 Май 2013 17:23:15
 Размер:   699 MB  (
 Рейтинг:   4.5 (Голосов: 39)
 Поблагодарили:   151
 Проверка:   Оформление проверено модератором 27 Май 2013 11:39:54
Как cкачать  ·  Как раздать  ·  Правильно оформить  ·  Поднять ратио!  
Топик был перенесен из форума Зарубежные Новинки (HD*Rip/LQ, DVDRip) в форум Архив Видео

Причина переноса: на трекере доступен звук с лицензии
Lelya_K
Показать сообщения:   
Начать новую тему   Ответить на тему    Торрент-трекер NNM-Club -> Архив торрентов -> Архив Видео. Кино, Театра Часовой пояс: GMT + 3
Страница 1 из 1