Классический форум-трекер
canvas not supported
Нас вместе: 4 232 303

Тачка №19 / Vehicle 19 (2013) BDRip [1080p] [Line]


 
 
RSS
Начать новую тему   Ответить на тему    Торрент-трекер NNM-Club -> Архив торрентов -> Архив Видео. Кино, Театра
Автор Сообщение
eXPpectant ®
Стаж: 14 лет 5 мес.
Сообщений: 2457
Ratio: 1628.264
Раздал: 18.08 TB
Поблагодарили: 308063
100%
Откуда: Нижний Тагил + Дмитров
russia.gif
Тачка №19 / Vehicle 19 (2013) BDRip
«Он выбрал не ту тачку. Они выбрали не того парня»
Русское название: Тачка №19
Оригинальное название: Vehicle 19
Год выпуска: 2013
Производство: США, ЮАР
Жанр: Триллер, Боевик, Криминал, Драма
Перевод: Дублированный (Чистый звук)
Субтитры: Отсутствуют
Дата мировой премьеры: 7 февраля 2013
Дата российской премьеры: 2 мая 2013, «Кинопром»
Дата выхода DVD релиза: 13 июня 2013, «CP Дистрибуция»
Дата выхода Blu-Ray релиза: 13 июня 2013, «CP Дистрибуция»
Режиссер: Мукунда Майкл Дьюил
Продюсер: Райан Хайдариан, Питер Сафран, Уэйн Марк Годфри
Актеры: Пол Уокер, Наима МакЛин, Ги Де Виллерс, Лэйла Хайдариан, Тшепо Масеко, Андриан Мазив, Велиль Нзуза, Мангалисо Нгема, Эрнест Кубайи, Элиз Ван Никерк
Описание фильма:
Что делать, если из багажника арендованной в незнакомом городе тачки в салон вываливается связанная девушка? Сдать бедолагу в ближайший полицейский участок? Спасибо, Кэп, но не все так просто! Эта девушка важный свидетель в большом заговоре, и ее уже приговорили к смерти… На хвосте висят все копы города, выход один — вдавить педаль газа в пол и считать дырки от пуль и разбитые полицейские машины! Гонки на выживание начинаются!

Продолжительность: 01:25:10
Качество видео: BDRip
Видеокодек: MPEG-4 AVC/H.264
Битрейт видео: ~13,4 Мбит/сек
Размер кадра: 1920х800
Аудио#1: Русский (AC3, 6 ch, 448 Кбит/сек)
Аудио#2: Английский (DTS, 6 ch, 1510 Кбит/сек)
Общее
Уникальный идентификатор : 251553040371342219745753083658888567574 (0xBD3F5A7237075B8C99763E4DE9185B16)
Полное имя : D:\Торрент раздача\Tachka.19.2013.D.BDRip.1080p.mkv
Формат : Matroska
Версия формата : Version 2
Размер файла : 9,33 Гбайт
Продолжительность : 1 ч. 25 м.
Общий поток : 15,7 Мбит/сек
Дата кодирования : UTC 2013-05-26 07:31:26
Программа кодирования : mkvmerge v5.7.0 ('The Whirlwind') built on Jul 8 2012 20:08:51
Библиотека кодирования : libebml v1.2.3 + libmatroska v1.3.0

Видео
Идентификатор : 1
Формат : AVC
Формат/Информация : Advanced Video Codec
Профиль формата : High@L4.1
Параметр CABAC формата : Да
Параметр ReFrames формата : 5 кадров
Режим смешивания : Header stripping
Идентификатор кодека : V_MPEG4/ISO/AVC
Продолжительность : 1 ч. 25 м.
Битрейт : 13,4 Мбит/сек
Ширина : 1920 пикселей
Высота : 800 пикселей
Соотношение сторон : 2,40:1
Режим частоты кадров : Постоянный
Частота кадров : 23,976 кадра/сек
Цветовое пространство : YUV
Субдискретизация насыщенности : 4:2:0
Битовая глубина : 8 бит
Тип развёртки : Прогрессивная
Бит/(Пиксели*Кадры) : 0.364
Размер потока : 7,98 Гбайт (86%)
Библиотека кодирования : x264 core 130 r2274+704+40 24c804d tMod+MixAQ [8-bit@4:2:0 X86_64]
Настройки программы : cabac=1 / ref=5 / deblock=1:-3:-3 / analyse=0x3:0x113 / me=umh / subme=11 / psy=1 / fade_compensate=0.00 / psy_rd=1.05:0.00 / mixed_ref=1 / me_range=48 / chroma_me=1 / trellis=2 / 8x8dct=1 / cqm=0 / deadzone=21,11 / fast_pskip=0 / chroma_qp_offset=-2 / threads=36 / lookahead_threads=6 / sliced_threads=0 / nr=0 / decimate=0 / interlaced=0 / bluray_compat=0 / constrained_intra=0 / fgo=0 / bframes=8 / b_pyramid=2 / b_adapt=2 / b_bias=0 / direct=3 / weightb=1 / open_gop=0 / weightp=2 / keyint=240 / keyint_min=24 / scenecut=40 / intra_refresh=0 / rc=crf / mbtree=0 / crf=17.2000 / qcomp=0.72 / qpmin=0 / qpmax=69 / qpstep=4 / ip_ratio=1.25 / pb_ratio=1.20 / aq=4:0.80 / aq-sensitivity=10.00 / aq-ifactor=1.00 / aq-pfactor=1.00 / aq-bfactor=1.00 / aq2=0
Язык : English
Default : Да
Forced : Нет

Аудио #1
Идентификатор : 2
Формат : AC-3
Формат/Информация : Audio Coding 3
Расширение режима : CM (complete main)
Параметр Endianness формата : Big
Режим смешивания : Header stripping
Идентификатор кодека : A_AC3
Продолжительность : 1 ч. 25 м.
Вид битрейта : Постоянный
Битрейт : 448 Кбит/сек
Каналы : 6 каналов
Расположение каналов : Front: L C R, Side: L R, LFE
Частота : 48,0 КГц
Битовая глубина : 16 бит
Метод сжатия : С потерями
Размер потока : 273 Мбайт (3%)
Default : Да
Forced : Нет

Аудио #2
Идентификатор : 3
Формат : DTS
Формат/Информация : Digital Theater Systems
Режим : 16
Параметр Endianness формата : Big
Режим смешивания : Header stripping
Идентификатор кодека : A_DTS
Продолжительность : 1 ч. 25 м.
Вид битрейта : Постоянный
Битрейт : 1509 Кбит/сек
Каналы : 6 каналов
Расположение каналов : Front: L C R, Side: L R, LFE
Частота : 48,0 КГц
Битовая глубина : 16 бит
Метод сжатия : С потерями
Размер потока : 919 Мбайт (10%)
Язык : English
Default : Нет
Forced : Нет
Скриншоты:

Время раздачи: 24/7 по возможности
[NNM-Club.ru]_Tachka.19.2013.D.BDRip.1080p.torrent
 Торрент: Платиновая раздача  Зарегистрирован
 
Скачать


 Зарегистрирован:   26 Май 2013 23:54:03
 Размер:   9.33 GB  (
 Рейтинг:   4.4 (Голосов: 41)
 Поблагодарили:   163
 Проверка:   Оформление проверено модератором 27 Май 2013 10:19:21
Как cкачать  ·  Как раздать  ·  Правильно оформить  ·  Поднять ратио!  
Grizzzli
Стаж: 15 лет 9 мес.
Сообщений: 59
Ratio: 6.664
Раздал: 137.2 TB
Поблагодарили: 195
100%
Откуда: Оренбург
russia.gif
Ну и [однако] такой сэмпл где ни слова ни сказано? Так, поржать?

_________________
100 Мбит/с 100 Мбит/с
gooreloov
Стаж: 13 лет 6 мес.
Сообщений: 1
Ratio: 14.008
42.86%
так перевод есть или нет?
gunini58
Стаж: 13 лет
Сообщений: 59
Ratio: 12.948
100%
russia.gif
Перевод есть, качество на троечку. Да и фильм нудный, весь проходит в авто и фильм одного актера. Посмотреть один раз и забыть. По пятибалльной шкале на двойку с минусом.
spank
Стаж: 13 лет
Сообщений: 71
Ratio: 2.709
29.63%
шляпа!
Transbora
Стаж: 13 лет 1 мес.
Сообщений: 96
Ratio: 14.844
100%
russia.gif
Действия героя напоминают Коляна из реальных пацанов! Ни ума ни фантазии! Откровенно слабый фильм
Топик был перенесен из форума Новинки (HD) в форум Архив Видео

Причина переноса: http://nnmclub.to/forum/viewtopic.php?t=667321&sid=3f27d942fc7ee5f6b22bfbd20a19ff1d
ElektrAа
Показать сообщения:   
Начать новую тему   Ответить на тему    Торрент-трекер NNM-Club -> Архив торрентов -> Архив Видео. Кино, Театра Часовой пояс: GMT + 3
Страница 1 из 1