Классический форум-трекер
canvas not supported
Нас вместе: 4 232 303

Неудержимый / Bullet to the Head (2012) BDRip [H.264] [Line]


 
 
RSS
Начать новую тему   Ответить на тему    Торрент-трекер NNM-Club -> Архив торрентов -> Архив Видео. Кино, Театра
Автор Сообщение
eXPpectant ®
Стаж: 14 лет 5 мес.
Сообщений: 2457
Ratio: 1628.264
Раздал: 18.08 TB
Поблагодарили: 308063
100%
Откуда: Нижний Тагил + Дмитров
russia.gif
Неудержимый / Bullet to the Head (2012) BDRip
Русское название: Неудержимый
Оригинальное название: Bullet to the Head
Год выпуска: 2012
Производство: США / Dark Castle Entertainment, IM Global, After Dark Films
Жанр: Боевик, Криминал, Триллер
Перевод: Дублированный (Чистый звук)
Язык субтитров: Английский
Субтитры: Вшитые отключаемые
Дата мировой премьеры: 14 ноября 2012
Дата российской премьеры: 7 февраля 2013, «Централ Партнершип»
Дата выхода DVD релиза: 27 июня 2013, «CD Land»
Режиссер: Уолтер Хилл
Продюсер: Альфред Гоф, Александра Милчэн, Майлз Миллар
Актеры: Сильвестр Сталлоне, Санг Кенг, Сара Шахи, Адевале Акинойе-Агбаже, Джейсон Момоа, Кристиан Слэйтер, Джон Седа, Холт МакКэллани, Брайан Ван Холт, Вероника Розати
Описание фильма:
Киллер из Нового Орлеана объединяется с молодым полицейским из Нью-Йорка, расследуя дело, которое выводит их с мрачных задворок Нового Орлеана в светлые коридоры правительственных зданий в Вашингтоне. Необычный дуэт формируется в результате двух жестоких убийств. Герои убирают всех, кто стоит у них на пути, и готовы пожертвовать всем, чтобы отомстить.

Продолжительность: 01:31:33
Качество видео: BDRip
Видеокодек: MPEG-4 AVC/H.264
Битрейт видео: ~1914 Кбит/c
Размер кадра: 1024x552
Аудио#1: Русский (AC3, 2 ch, 192 Кбит/c)
Аудио#2: Английский (AC3, 6 ch, 448 Кбит/c)
Общее
Уникальный идентификатор : 238124942965372708824549994474648554790 (0xB3253221038BC68FBA613F22023ACD26)
Полное имя : D:\Торрент раздача\Neuderzhimyi.2012.BDRip.(AVC).mkv
Формат : Matroska
Версия формата : Version 2
Размер файла : 1,63 Гбайт
Продолжительность : 1 ч. 31 м.
Общий поток : 2554 Кбит/сек
Название фильма : Неудержимый
Дата кодирования : UTC 2013-05-27 09:48:43
Программа кодирования : mkvmerge v5.7.0 ('The Whirlwind') built on Aug 7 2012 14:11:40
Библиотека кодирования : libebml v1.2.3 + libmatroska v1.3.0

Видео
Идентификатор : 1
Формат : AVC
Формат/Информация : Advanced Video Codec
Профиль формата : High@L4.1
Параметр CABAC формата : Да
Параметр ReFrames формата : 8 кадров
Идентификатор кодека : V_MPEG4/ISO/AVC
Продолжительность : 1 ч. 31 м.
Битрейт : 1914 Кбит/сек
Ширина : 1024 пикселя
Высота : 552 пикселя
Соотношение сторон : 1,85:1
Режим частоты кадров : Постоянный
Частота кадров : 23,976 кадра/сек
Цветовое пространство : YUV
Субдискретизация насыщенности : 4:2:0
Битовая глубина : 8 бит
Тип развёртки : Прогрессивная
Бит/(Пиксели*Кадры) : 0.141
Размер потока : 1,19 Гбайт (73%)
Заголовок : Неудержимый (MediaClub-kaspr)
Библиотека кодирования : x264 core 130 r2273 b3065e6
Настройки программы : cabac=1 / ref=8 / deblock=1:-3:-3 / analyse=0x3:0x133 / me=umh / subme=11 / psy=1 / psy_rd=1.00:0.10 / mixed_ref=1 / me_range=32 / chroma_me=1 / trellis=2 / 8x8dct=1 / cqm=0 / deadzone=21,11 / fast_pskip=0 / chroma_qp_offset=-3 / threads=12 / lookahead_threads=3 / sliced_threads=0 / nr=0 / decimate=0 / interlaced=0 / bluray_compat=0 / constrained_intra=0 / bframes=10 / b_pyramid=2 / b_adapt=2 / b_bias=0 / direct=3 / weightb=1 / open_gop=0 / weightp=2 / keyint=240 / keyint_min=22 / scenecut=40 / intra_refresh=0 / rc=2pass / mbtree=0 / bitrate=1914 / ratetol=1.0 / qcomp=0.60 / qpmin=0 / qpmax=69 / qpstep=4 / cplxblur=20.0 / qblur=0.5 / ip_ratio=1.40 / pb_ratio=1.30 / aq=1:1.00
Default : Да
Forced : Нет

Аудио #1
Идентификатор : 2
Формат : AC-3
Формат/Информация : Audio Coding 3
Расширение режима : CM (complete main)
Параметр Endianness формата : Big
Идентификатор кодека : A_AC3
Продолжительность : 1 ч. 31 м.
Вид битрейта : Постоянный
Битрейт : 192 Кбит/сек
Каналы : 2 канала
Расположение каналов : Front: L R
Частота : 48,0 КГц
Битовая глубина : 16 бит
Метод сжатия : С потерями
Размер потока : 126 Мбайт (8%)
Заголовок : Дубляж
Язык : Russian
Default : Да
Forced : Да

Аудио #2
Идентификатор : 3
Формат : AC-3
Формат/Информация : Audio Coding 3
Расширение режима : CM (complete main)
Параметр Endianness формата : Big
Идентификатор кодека : A_AC3
Продолжительность : 1 ч. 31 м.
Вид битрейта : Постоянный
Битрейт : 448 Кбит/сек
Каналы : 6 каналов
Расположение каналов : Front: L C R, Side: L R, LFE
Частота : 48,0 КГц
Битовая глубина : 16 бит
Метод сжатия : С потерями
Размер потока : 293 Мбайт (18%)
Заголовок : Оригинал
Язык : English
Default : Нет
Forced : Нет

Текст
Идентификатор : 4
Формат : UTF-8
Идентификатор кодека : S_TEXT/UTF8
Идентификатор кодека/Информация : UTF-8 Plain Text
Язык : English
Default : Нет
Forced : Нет

Меню
00:00:00.000 : en:Chapter 01
00:06:32.433 : en:Chapter 02
00:07:43.379 : en:Chapter 03
00:11:30.439 : en:Chapter 04
00:16:25.109 : en:Chapter 05
00:21:54.354 : en:Chapter 06
00:27:53.546 : en:Chapter 07
00:30:30.078 : en:Chapter 08
00:34:59.931 : en:Chapter 09
00:40:39.311 : en:Chapter 10
00:47:19.294 : en:Chapter 11
00:56:18.375 : en:Chapter 12
01:00:55.109 : en:Chapter 13
01:03:45.446 : en:Chapter 14
01:07:01.183 : en:Chapter 15
01:09:18.571 : en:Chapter 16
01:13:50.968 : en:Chapter 17
01:17:32.356 : en:Chapter 18
01:23:24.332 : en:Chapter 19
01:26:23.011 : en:Chapter 20
  • Режиссером фильма должен был стать Уэйн Крамер и начать съемки в феврале 2011 года. Однако из-за занятости Сильвестра Сталлоне на других проектах съемки пришлось отложить, после чего Крамер покинул проект. 11 апреля 2011 года режиссерское кресло занял Уолтер Хилл.
  • Изначально, на одну из главных ролей Уэй Крамер пригласил Томаса Джейна. Когда Крамер покинул проект, Джейн лично предложил Сталлоне нанять Уолтера Хилла. После того, как Хилл согласился, продюсер фильма Джоэл Силвер «выдворил» Томаса Джейна, так как считал, что в напарниках у Сильвестра Сталлоне должен быть «этнический парень».
  • Первый фильм Уолтера Хилла, спустя 10 лет после фильма «Обсуждению не подлежит» (2002).
  • Ближе к концу фильма Бономо встречает Квона в баре, и он снова пьет свой бурбон. Когда они заканчивают разговаривать, он полностью допивает содержимое своего стакана. Но когда опускает его на барную стойку, хорошо видно, что немного напитка еще осталось на дне.
Скриншоты:


Время раздачи: 24/7
[NNM-Club.ru]_Neuderzhimyi.2012.BDRip.(AVC).torrent
 Торрент: Платиновая раздача  Зарегистрирован
 
Скачать


Примагнититься
 Зарегистрирован:   27 Май 2013 18:29:51
 Размер:   1.63 GB  (
 Рейтинг:   4.1 (Голосов: 44)
 Поблагодарили:   173
 Проверка:   Оформление проверено модератором 29 Май 2013 12:38:02
Как cкачать  ·  Как раздать  ·  Правильно оформить  ·  Поднять ратио!  
SweetHeart
Стаж: 16 лет 10 мес.
Сообщений: 769
Ratio: 14.619
Поблагодарили: 183
91.95%
Откуда: Республика Корея
north_korea.gif
:убится ап стену: Bullet to the Head - Неудержимый. Хотя тут пожалуй готов с неохотой признать логичность кривого типа перевода... Как фильм? :)

_________________
monowor
Стаж: 13 лет 10 мес.
Сообщений: 197
Ratio: 7.906
100%
Откуда: Одесса
ukraine.gif
SweetHeart
я слышал бывает такое как фильм покупают для показа с одним названием а потом название меняют сценаристы или кто там этим заведует а в прокат он выходит уже с тем названием с которым его в контракте покупали .
Dobertv
Стаж: 14 лет
Сообщений: 21
Ratio: 6.449
Раздал: 27 TB
100%
russia.gif
Решение о названии фильма - вопрос прокатчика, а не кинопроизводителей. Маркетологи работают, дабы привлечь кинозрителей.
myzhig
Стаж: 14 лет
Сообщений: 113
Ratio: 4.906
0.37%
Щас заценю, надеюсь увидеть рэмбо за "писюном" как в http://www.youtube.com/watch?v=aL39jJN9hHM

Добавлено спустя 1 час 44 минуты 15 секунд:

Ну как то на троечку... китаец какой то отстойный из форсажа, плохо отыгрывает. Сюжет незамысловат, боевичек короче - 80%пи*дежь - 20% пиу пиу.
Топик был перенесен из форума Зарубежные Новинки (HD*Rip/LQ, DVDRip) в форум Архив Видео


Lelya_K
Показать сообщения:   
Начать новую тему   Ответить на тему    Торрент-трекер NNM-Club -> Архив торрентов -> Архив Видео. Кино, Театра Часовой пояс: GMT + 3
Страница 1 из 1