Классический форум-трекер
canvas not supported
Нас вместе: 4 232 304

Слепой / A l'aveugle (2012) HDRip [H.264]


 
 
RSS
Начать новую тему   Ответить на тему    Торрент-трекер NNM-Club -> Зарубежное кино -> Зарубежные Фильмы (SD)
Автор Сообщение
eXPpectant ®
Стаж: 14 лет 5 мес.
Сообщений: 2457
Ratio: 1628.264
Раздал: 18.08 TB
Поблагодарили: 308063
100%
Откуда: Нижний Тагил + Дмитров
russia.gif
Слепой / A l'aveugle (2012) HDRip
Русское название: Слепой
Оригинальное название: A l'aveugle
Год выпуска: 2012
Производство: Франция / EuropaCorp, France 2 Cinéma, Orange Cinéma Séries
Жанр: Боевик, Триллер
Перевод: Многоголосый закадровый, профессиональный (лицензия)
Субтитры: Отсутствуют
Дата мировой премьеры: 7 марта 2012
Дата выхода DVD релиза: 23 мая 2013, «Вольга»
Режиссер: Ксавьер Палю
Продюсер: Люк Бессон
Актеры: Жак Гамблен, Ламбер Вильсон, Рафаэль Ароре, Арно Коссон, Антуан Леваннье, Фридерик Контожом, Давид Капелле, Натали Винье, Паскаль Демолон, Николя Пиньон, Дэниэл Лобе, Миглен Миртчев, Артур Монкла
Описание фильма:
Изувеченный труп молодой девушки найден у нее дома. Ни взлома, ни свидетелей, все выглядит идеальным преступлением. Расследование поручается капитану Лассаллю, опытному одинокому полицейскому, разбитому недавней смертью жены. Схожие по характеру жестокие убийства продолжают происходить, и в связи с ними Лассалля интригует личность слепого Нарвика. Но у него есть алиби, а его немощь, казалось бы, ограждает от подозрений. Странная дуэль наподобие игры в шахматы начинается между двумя людьми.

Продолжительность: 01:33:26
Качество видео: HDRip
Видеокодек: MPEG-4 AVC/H.264
Битрейт видео: ~1973 Кбит/с
Размер кадра: 1040x442
Аудиокодек: AC3 5.1
Битрейт аудио: 256 Кбит/с
Общее
Уникальный идентификатор : 229242743612897215413460725323321186639 (0xAC768BE3DE7CFDC09B26FE20194A194F)
Полное имя : D:\Торрент раздача\Slepoy.2012.P.HDRip-AVC.mkv
Формат : Matroska
Версия формата : Version 4 / Version 2
Размер файла : 1,46 Гбайт
Продолжительность : 1 ч. 33 м.
Общий поток : 2231 Кбит/сек
Дата кодирования : UTC 2013-05-27 22:52:40
Программа кодирования : mkvmerge v6.1.0 ('Old Devil') built on Mar 2 2013 14:32:37
Библиотека кодирования : libebml v1.3.0 + libmatroska v1.4.0

Видео
Идентификатор : 1
Формат : AVC
Формат/Информация : Advanced Video Codec
Профиль формата : High@L4.1
Параметр CABAC формата : Да
Параметр ReFrames формата : 11 кадров
Идентификатор кодека : V_MPEG4/ISO/AVC
Продолжительность : 1 ч. 33 м.
Битрейт : 1973 Кбит/сек
Ширина : 1040 пикселей
Высота : 442 пикселя
Соотношение сторон : 2,35:1
Режим частоты кадров : Постоянный
Частота кадров : 24,000 кадра/сек
Цветовое пространство : YUV
Субдискретизация насыщенности : 4:2:0
Битовая глубина : 8 бит
Тип развёртки : Прогрессивная
Бит/(Пиксели*Кадры) : 0.179
Размер потока : 1,26 Гбайт (87%)
Библиотека кодирования : x264 core 130 r2273 b3065e6
Настройки программы : cabac=1 / ref=11 / deblock=1:-2:-1 / analyse=0x3:0x113 / me=umh / subme=9 / psy=1 / psy_rd=1.00:0.10 / mixed_ref=1 / me_range=32 / chroma_me=1 / trellis=2 / 8x8dct=1 / cqm=0 / deadzone=21,11 / fast_pskip=1 / chroma_qp_offset=-3 / threads=9 / lookahead_threads=2 / sliced_threads=0 / nr=0 / decimate=1 / interlaced=0 / bluray_compat=0 / constrained_intra=0 / bframes=10 / b_pyramid=2 / b_adapt=2 / b_bias=0 / direct=3 / weightb=1 / open_gop=0 / weightp=2 / keyint=240 / keyint_min=23 / scenecut=40 / intra_refresh=0 / rc_lookahead=80 / rc=2pass / mbtree=1 / bitrate=1973 / ratetol=1.0 / qcomp=0.60 / qpmin=0 / qpmax=69 / qpstep=4 / cplxblur=20.0 / qblur=0.5 / ip_ratio=1.40 / aq=2:0.90
Язык : French
Default : Да
Forced : Нет

Аудио
Идентификатор : 2
Формат : AC-3
Формат/Информация : Audio Coding 3
Расширение режима : CM (complete main)
Параметр Endianness формата : Big
Идентификатор кодека : A_AC3
Продолжительность : 1 ч. 33 м.
Вид битрейта : Постоянный
Битрейт : 256 Кбит/сек
Каналы : 6 каналов
Расположение каналов : Front: L C R, Side: L R, LFE
Частота : 48,0 КГц
Битовая глубина : 16 бит
Метод сжатия : С потерями
Размер потока : 171 Мбайт (11%)
Язык : Russian
Default : Да
Forced : Нет
Скриншоты:


Время раздачи: 24/7
[NNM-Club.ru]_Slepoy.2012.P.HDRip-AVC.torrent
 Торрент: Платиновая раздача  Зарегистрирован
 
Скачать


Примагнититься
 Зарегистрирован:   28 Май 2013 07:06:46
 Размер:   1.46 GB  (
 Рейтинг:   4.6 (Голосов: 81)
 Поблагодарили:   464
 Проверка:   Оформление проверено модератором 29 Май 2013 15:08:47
Как cкачать  ·  Как раздать  ·  Правильно оформить  ·  Поднять ратио!  
Centiman12
Стаж: 11 лет 4 мес.
Сообщений: 245
Ratio: 16.977
100%
Большое спасибо!
mr.relax
Стаж: 15 лет 2 мес.
Сообщений: 115
Ratio: 38.86
Поблагодарили: 1
100%
Откуда: Ukraine
ukraine.gif
не впечатлил. и какой-то очень быстрый сюжет. не успел ни чаю допить ни проникнуться действом...
stepa163rus
Стаж: 14 лет 7 мес.
Сообщений: 46
Ratio: 4.92
66.1%
Откуда: Федя и рация.
russia.gif
неплохой фильм, лучше, чем многие из тех, что сейчас штампуют пачками... Этот не из их числа.
Показать сообщения:   
Начать новую тему   Ответить на тему    Торрент-трекер NNM-Club -> Зарубежное кино -> Зарубежные Фильмы (SD) Часовой пояс: GMT + 3
Страница 1 из 1