Классический форум-трекер
canvas not supported
Нас вместе: 4 172 702

The Doors - The Very Best Of Doors (2007) [ALAC|Lossless]<Rock>


 
 
RSS
Начать новую тему   Ответить на тему    Торрент-трекер NNM-Club -> Аудио и Видео -> Музыка Lossless (ALAC)
Автор Сообщение
CafeTea ®
Покровитель талантов
Стаж: 10 лет 5 мес.
Сообщений: 513
Ratio: 6.698
Поблагодарили: 20421
100%
The Doors - The Very Best Of Doors (2007)
Год: 2007
Жанр: Rock
Издатель (лейбл): "Electra" "Rhino"
Кодек: ALAC
Битрейт: Lossless

Продолжительность: 02:19:04
Трек лист:
Продолжительность: 1:07:19
1. Break On Through
2. Strange Days
3. Alabama Song
4. Love Me Two Times
5. Light My Fire
6. Spanish Caravan
7. Crystal Ship
8. The Unknown Soldier
9. The End (full version)
10. People Are Strange
11. Back Door Man
12. Moonlight Drive
13. End Of The Night
14. Five To One
15. When The Music's Over
Продолжительность: 1:11:45
1. Bird Of Prey
2. Love Her Madly
3. Riders On The Storm
4. Orange County Suite
5. Runnin' Blue
6. Hello I Love You
7. The W.A.S.P. (Texas Radio & The Big Beat)
8. Stoned Immaculate
9. Soul Kitchen
10. Peace Frog
11. L.A. Woman
12. Waiting For The Sun
13. Touch Me
14. The Changeling
15. Wishful, Sinful
16. Love Street
17. The Ghost Song
18. Whiskey, Mystics And Men
19. Roadhouse Blues
Двойной сборник лучших вещей американского культового коллектива выпущенный в 2007 году. Удостоился бриллиантового статуса, разойдясь тиражом более чем в 10 миллионов. Издание содержит буклет с фотографиями и дополнительной информацией на английском языке.
Код:
Общее
Полное имя                               : C:\Users\User\Desktop\The Very Best Of The Doors. 40th Annivesary [ALAC]\CD1\01. Break On Through (To The Other Side).m4a
Формат                                   : MPEG-4
Профиль формата                          : Apple audio with iTunes info
Идентификатор кодека                     : M4A
Размер файла                             : 17,0 Мбайт
Продолжительность                        : 2 м. 28 с.
Режим общего битрейта                    : Переменный
Общий поток                              : 961 Кбит/сек
Альбом                                   : The Very Best Of The Doors [CD1]
Альбом/Исполнитель                       : The Doors
Трек                                     : Break On Through (To The Other Side)
Трек/Положение                           : 1
Исполнитель                              : The Doors
Дата кодирования                         : UTC 2013-05-27 18:00:50
Дата пометки                             : UTC 2013-05-27 18:00:53
Программа кодирования                    : Easy CD-DA Extractor (http://www.poikosoft.com)
Обложка                                  : Yes

Аудио
Идентификатор                            : 1
Формат                                   : ALAC
Идентификатор кодека                     : alac
Идентификатор кодека/Информация          : Apple Lossless Audio Codec
Продолжительность                        : 2 м. 28 с.
Duration_LastFrame                       : -61 мс.
Вид битрейта                             : Переменный
Битрейт                                  : 923 Кбит/сек
Каналы                                   : 2 канала
Частота                                  : 44,1 КГц
Битовая глубина                          : 16 бит
Размер потока                            : 16,4 Мбайт (96%)
Язык                                     : English
Дата кодирования                         : UTC 2013-05-27 18:00:50
Дата пометки                             : UTC 2013-05-27 18:00:53

Общее
Полное имя                               : C:\Users\User\Desktop\The Very Best Of The Doors. 40th Annivesary [ALAC]\CD1\02. Strange Days.m4a
Формат                                   : MPEG-4
Профиль формата                          : Apple audio with iTunes info
Идентификатор кодека                     : M4A
Размер файла                             : 19,6 Мбайт
Продолжительность                        : 3 м. 9 с.
Режим общего битрейта                    : Переменный
Общий поток                              : 867 Кбит/сек
Альбом                                   : The Very Best Of The Doors [CD1]
Альбом/Исполнитель                       : The Doors
Трек                                     : Strange Days
Трек/Положение                           : 2
Исполнитель                              : The Doors
Дата кодирования                         : UTC 2013-05-27 18:00:50
Дата пометки                             : UTC 2013-05-27 18:00:56
Программа кодирования                    : Easy CD-DA Extractor (http://www.poikosoft.com)
Обложка                                  : Yes

Аудио
Идентификатор                            : 1
Формат                                   : ALAC
Идентификатор кодека                     : alac
Идентификатор кодека/Информация          : Apple Lossless Audio Codec
Продолжительность                        : 3 м. 9 с.
Duration_LastFrame                       : -60 мс.
Вид битрейта                             : Переменный
Битрейт                                  : 837 Кбит/сек
Каналы                                   : 2 канала
Частота                                  : 44,1 КГц
Битовая глубина                          : 16 бит
Размер потока                            : 18,9 Мбайт (97%)
Язык                                     : English
Дата кодирования                         : UTC 2013-05-27 18:00:50
Дата пометки                             : UTC 2013-05-27 18:00:56

Общее
Полное имя                               : C:\Users\User\Desktop\The Very Best Of The Doors. 40th Annivesary [ALAC]\CD1\03. Alabama Song (Whisky Bar).m4a
Формат                                   : MPEG-4
Профиль формата                          : Apple audio with iTunes info
Идентификатор кодека                     : M4A
Размер файла                             : 21,4 Мбайт
Продолжительность                        : 3 м. 17 с.
Режим общего битрейта                    : Переменный
Общий поток                              : 910 Кбит/сек
Альбом                                   : The Very Best Of The Doors [CD1]
Альбом/Исполнитель                       : The Doors
Трек                                     : Alabama Song (Whisky Bar)
Трек/Положение                           : 3
Исполнитель                              : The Doors
Дата кодирования                         : UTC 2013-05-27 18:00:53
Дата пометки                             : UTC 2013-05-27 18:01:01
Программа кодирования                    : Easy CD-DA Extractor (http://www.poikosoft.com)
Обложка                                  : Yes

Аудио
Идентификатор                            : 1
Формат                                   : ALAC
Идентификатор кодека                     : alac
Идентификатор кодека/Информация          : Apple Lossless Audio Codec
Продолжительность                        : 3 м. 17 с.
Duration_LastFrame                       : -63 мс.
Вид битрейта                             : Переменный
Битрейт                                  : 881 Кбит/сек
Каналы                                   : 2 канала
Частота                                  : 44,1 КГц
Битовая глубина                          : 16 бит
Размер потока                            : 20,7 Мбайт (97%)
Язык                                     : English
Дата кодирования                         : UTC 2013-05-27 18:00:53
Дата пометки                             : UTC 2013-05-27 18:01:01

Общее
Полное имя                               : C:\Users\User\Desktop\The Very Best Of The Doors. 40th Annivesary [ALAC]\CD1\04. Love Me Two Times.m4a
Формат                                   : MPEG-4
Профиль формата                          : Apple audio with iTunes info
Идентификатор кодека                     : M4A
Размер файла                             : 22,4 Мбайт
Продолжительность                        : 3 м. 16 с.
Режим общего битрейта                    : Переменный
Общий поток                              : 954 Кбит/сек
Альбом                                   : The Very Best Of The Doors [CD1]
Альбом/Исполнитель                       : The Doors
Трек                                     : Love Me Two Times
Трек/Положение                           : 4
Исполнитель                              : The Doors
Дата кодирования                         : UTC 2013-05-27 18:00:56
Дата пометки                             : UTC 2013-05-27 18:01:07
Программа кодирования                    : Easy CD-DA Extractor (http://www.poikosoft.com)
Обложка                                  : Yes

Аудио
Идентификатор                            : 1
Формат                                   : ALAC
Идентификатор кодека                     : alac
Идентификатор кодека/Информация          : Apple Lossless Audio Codec
Продолжительность                        : 3 м. 16 с.
Duration_LastFrame                       : -67 мс.
Вид битрейта                             : Переменный
Битрейт                                  : 925 Кбит/сек
Каналы                                   : 2 канала
Частота                                  : 44,1 КГц
Битовая глубина                          : 16 бит
Размер потока                            : 21,7 Мбайт (97%)
Язык                                     : English
Дата кодирования                         : UTC 2013-05-27 18:00:56
Дата пометки                             : UTC 2013-05-27 18:01:07

Общее
Полное имя                               : C:\Users\User\Desktop\The Very Best Of The Doors. 40th Annivesary [ALAC]\CD1\05. Light My Fire.m4a
Формат                                   : MPEG-4
Профиль формата                          : Apple audio with iTunes info
Идентификатор кодека                     : M4A
Размер файла                             : 47,7 Мбайт
Продолжительность                        : 7 м. 1 с.
Режим общего битрейта                    : Переменный
Общий поток                              : 950 Кбит/сек
Альбом                                   : The Very Best Of The Doors [CD1]
Альбом/Исполнитель                       : The Doors
Трек                                     : Light My Fire
Трек/Положение                           : 5
Исполнитель                              : The Doors
Дата кодирования                         : UTC 2013-05-27 18:01:01
Дата пометки                             : UTC 2013-05-27 18:01:18
Программа кодирования                    : Easy CD-DA Extractor (http://www.poikosoft.com)
Обложка                                  : Yes

Аудио
Идентификатор                            : 1
Формат                                   : ALAC
Идентификатор кодека                     : alac
Идентификатор кодека/Информация          : Apple Lossless Audio Codec
Продолжительность                        : 7 м. 1 с.
Duration_LastFrame                       : -10 мс.
Вид битрейта                             : Переменный
Битрейт                                  : 936 Кбит/сек
Каналы                                   : 2 канала
Частота                                  : 44,1 КГц
Битовая глубина                          : 16 бит
Размер потока                            : 47,0 Мбайт (99%)
Язык                                     : English
Дата кодирования                         : UTC 2013-05-27 18:01:01
Дата пометки                             : UTC 2013-05-27 18:01:18

Общее
Полное имя                               : C:\Users\User\Desktop\The Very Best Of The Doors. 40th Annivesary [ALAC]\CD1\06. Spanish Caravan.m4a
Формат                                   : MPEG-4
Профиль формата                          : Apple audio with iTunes info
Идентификатор кодека                     : M4A
Размер файла                             : 15,9 Мбайт
Продолжительность                        : 3 м. 1 с.
Режим общего битрейта                    : Переменный
Общий поток                              : 737 Кбит/сек
Альбом                                   : The Very Best Of The Doors [CD1]
Альбом/Исполнитель                       : The Doors
Трек                                     : Spanish Caravan
Трек/Положение                           : 6
Исполнитель                              : The Doors
Дата кодирования                         : UTC 2013-05-27 18:01:07
Дата пометки                             : UTC 2013-05-27 18:01:26
Программа кодирования                    : Easy CD-DA Extractor (http://www.poikosoft.com)
Обложка                                  : Yes

Аудио
Идентификатор                            : 1
Формат                                   : ALAC
Идентификатор кодека                     : alac
Идентификатор кодека/Информация          : Apple Lossless Audio Codec
Продолжительность                        : 3 м. 1 с.
Duration_LastFrame                       : -21 мс.
Вид битрейта                             : Переменный
Битрейт                                  : 706 Кбит/сек
Каналы                                   : 2 канала
Частота                                  : 44,1 КГц
Битовая глубина                          : 16 бит
Размер потока                            : 15,2 Мбайт (96%)
Язык                                     : English
Дата кодирования                         : UTC 2013-05-27 18:01:07
Дата пометки                             : UTC 2013-05-27 18:01:26

Общее
Полное имя                               : C:\Users\User\Desktop\The Very Best Of The Doors. 40th Annivesary [ALAC]\CD1\07. The Crystal Ship.m4a
Формат                                   : MPEG-4
Профиль формата                          : Apple audio with iTunes info
Идентификатор кодека                     : M4A
Размер файла                             : 16,2 Мбайт
Продолжительность                        : 2 м. 35 с.
Режим общего битрейта                    : Переменный
Общий поток                              : 870 Кбит/сек
Альбом                                   : The Very Best Of The Doors [CD1]
Альбом/Исполнитель                       : The Doors
Трек                                     : The Crystal Ship
Трек/Положение                           : 7
Исполнитель                              : The Doors
Дата кодирования                         : UTC 2013-05-27 18:01:18
Дата пометки                             : UTC 2013-05-27 18:01:39
Программа кодирования                    : Easy CD-DA Extractor (http://www.poikosoft.com)
Обложка                                  : Yes

Аудио
Идентификатор                            : 1
Формат                                   : ALAC
Идентификатор кодека                     : alac
Идентификатор кодека/Информация          : Apple Lossless Audio Codec
Продолжительность                        : 2 м. 35 с.
Duration_LastFrame                       : -12 мс.
Вид битрейта                             : Переменный
Битрейт                                  : 834 Кбит/сек
Каналы                                   : 2 канала
Частота                                  : 44,1 КГц
Битовая глубина                          : 16 бит
Размер потока                            : 15,5 Мбайт (96%)
Язык                                     : English
Дата кодирования                         : UTC 2013-05-27 18:01:18
Дата пометки                             : UTC 2013-05-27 18:01:39

Общее
Полное имя                               : C:\Users\User\Desktop\The Very Best Of The Doors. 40th Annivesary [ALAC]\CD1\08. The Unknown Soldier.m4a
Формат                                   : MPEG-4
Профиль формата                          : Apple audio with iTunes info
Идентификатор кодека                     : M4A
Размер файла                             : 20,5 Мбайт
Продолжительность                        : 3 м. 26 с.
Режим общего битрейта                    : Переменный
Общий поток                              : 833 Кбит/сек
Альбом                                   : The Very Best Of The Doors [CD1]
Альбом/Исполнитель                       : The Doors
Трек                                     : The Unknown Soldier
Трек/Положение                           : 8
Исполнитель                              : The Doors
Дата кодирования                         : UTC 2013-05-27 18:01:26
Дата пометки                             : UTC 2013-05-27 18:01:51
Программа кодирования                    : Easy CD-DA Extractor (http://www.poikosoft.com)
Обложка                                  : Yes

Аудио
Идентификатор                            : 1
Формат                                   : ALAC
Идентификатор кодека                     : alac
Идентификатор кодека/Информация          : Apple Lossless Audio Codec
Продолжительность                        : 3 м. 26 с.
Duration_LastFrame                       : -43 мс.
Вид битрейта                             : Переменный
Битрейт                                  : 805 Кбит/сек
Каналы                                   : 2 канала
Частота                                  : 44,1 КГц
Битовая глубина                          : 16 бит
Размер потока                            : 19,9 Мбайт (97%)
Язык                                     : English
Дата кодирования                         : UTC 2013-05-27 18:01:26
Дата пометки                             : UTC 2013-05-27 18:01:51

Общее
Полное имя                               : C:\Users\User\Desktop\The Very Best Of The Doors. 40th Annivesary [ALAC]\CD1\09. The End.m4a
Формат                                   : MPEG-4
Профиль формата                          : Apple audio with iTunes info
Идентификатор кодека                     : M4A
Размер файла                             : 69,6 Мбайт
Продолжительность                        : 11 м.
Режим общего битрейта                    : Переменный
Общий поток                              : 833 Кбит/сек
Альбом                                   : The Very Best Of The Doors [CD1]
Альбом/Исполнитель                       : The Doors
Трек                                     : The End
Трек/Положение                           : 9
Исполнитель                              : The Doors
Дата кодирования                         : UTC 2013-05-27 18:01:40
Дата пометки                             : UTC 2013-05-27 18:02:14
Программа кодирования                    : Easy CD-DA Extractor (http://www.poikosoft.com)
Обложка                                  : Yes

Аудио
Идентификатор                            : 1
Формат                                   : ALAC
Идентификатор кодека                     : alac
Идентификатор кодека/Информация          : Apple Lossless Audio Codec
Продолжительность                        : 11 м.
Duration_LastFrame                       : -83 мс.
Вид битрейта                             : Переменный
Битрейт                                  : 824 Кбит/сек
Каналы                                   : 2 канала
Частота                                  : 44,1 КГц
Битовая глубина                          : 16 бит
Размер потока                            : 68,9 Мбайт (99%)
Язык                                     : English
Дата кодирования                         : UTC 2013-05-27 18:01:40
Дата пометки                             : UTC 2013-05-27 18:02:14

Общее
Полное имя                               : C:\Users\User\Desktop\The Very Best Of The Doors. 40th Annivesary [ALAC]\CD1\10. People Are Strange.m4a
Формат                                   : MPEG-4
Профиль формата                          : Apple audio with iTunes info
Идентификатор кодека                     : M4A
Размер файла                             : 13,7 Мбайт
Продолжительность                        : 2 м. 12 с.
Режим общего битрейта                    : Переменный
Общий поток                              : 867 Кбит/сек
Альбом                                   : The Very Best Of The Doors [CD1]
Альбом/Исполнитель                       : The Doors
Трек                                     : People Are Strange
Трек/Положение                           : 10
Исполнитель                              : The Doors
Дата кодирования                         : UTC 2013-05-27 18:01:51
Дата пометки                             : UTC 2013-05-27 18:02:27
Программа кодирования                    : Easy CD-DA Extractor (http://www.poikosoft.com)
Обложка                                  : Yes

Аудио
Идентификатор                            : 1
Формат                                   : ALAC
Идентификатор кодека                     : alac
Идентификатор кодека/Информация          : Apple Lossless Audio Codec
Продолжительность                        : 2 м. 12 с.
Duration_LastFrame                       : -21 мс.
Вид битрейта                             : Переменный
Битрейт                                  : 824 Кбит/сек
Каналы                                   : 2 канала
Частота                                  : 44,1 КГц
Битовая глубина                          : 16 бит
Размер потока                            : 13,0 Мбайт (95%)
Язык                                     : English
Дата кодирования                         : UTC 2013-05-27 18:01:51
Дата пометки                             : UTC 2013-05-27 18:02:27

Общее
Полное имя                               : C:\Users\User\Desktop\The Very Best Of The Doors. 40th Annivesary [ALAC]\CD1\11. Back Door Man.m4a
Формат                                   : MPEG-4
Профиль формата                          : Apple audio with iTunes info
Идентификатор кодека                     : M4A
Размер файла                             : 22,3 Мбайт
Продолжительность                        : 3 м. 33 с.
Режим общего битрейта                    : Переменный
Общий поток                              : 874 Кбит/сек
Альбом                                   : The Very Best Of The Doors [CD1]
Альбом/Исполнитель                       : The Doors
Трек                                     : Back Door Man
Трек/Положение                           : 11
Исполнитель                              : The Doors
Дата кодирования                         : UTC 2013-05-27 18:02:14
Дата пометки                             : UTC 2013-05-27 18:02:54
Программа кодирования                    : Easy CD-DA Extractor (http://www.poikosoft.com)
Обложка                                  : Yes

Аудио
Идентификатор                            : 1
Формат                                   : ALAC
Идентификатор кодека                     : alac
Идентификатор кодека/Информация          : Apple Lossless Audio Codec
Продолжительность                        : 3 м. 33 с.
Duration_LastFrame                       : -75 мс.
Вид битрейта                             : Переменный
Битрейт                                  : 848 Кбит/сек
Каналы                                   : 2 канала
Частота                                  : 44,1 КГц
Битовая глубина                          : 16 бит
Размер потока                            : 21,6 Мбайт (97%)
Язык                                     : English
Дата кодирования                         : UTC 2013-05-27 18:02:14
Дата пометки                             : UTC 2013-05-27 18:02:54

Общее
Полное имя                               : C:\Users\User\Desktop\The Very Best Of The Doors. 40th Annivesary [ALAC]\CD1\12. Moonlight Drive.m4a
Формат                                   : MPEG-4
Профиль формата                          : Apple audio with iTunes info
Идентификатор кодека                     : M4A
Размер файла                             : 20,1 Мбайт
Продолжительность                        : 3 м. 4 с.
Режим общего битрейта                    : Переменный
Общий поток                              : 912 Кбит/сек
Альбом                                   : The Very Best Of The Doors [CD1]
Альбом/Исполнитель                       : The Doors
Трек                                     : Moonlight Drive
Трек/Положение                           : 12
Исполнитель                              : The Doors
Дата кодирования                         : UTC 2013-05-27 18:02:27
Дата пометки                             : UTC 2013-05-27 18:03:09
Программа кодирования                    : Easy CD-DA Extractor (http://www.poikosoft.com)
Обложка                                  : Yes

Аудио
Идентификатор                            : 1
Формат                                   : ALAC
Идентификатор кодека                     : alac
Идентификатор кодека/Информация          : Apple Lossless Audio Codec
Продолжительность                        : 3 м. 4 с.
Duration_LastFrame                       : -5 мс.
Вид битрейта                             : Переменный
Битрейт                                  : 881 Кбит/сек
Каналы                                   : 2 канала
Частота                                  : 44,1 КГц
Битовая глубина                          : 16 бит
Размер потока                            : 19,4 Мбайт (97%)
Язык                                     : English
Дата кодирования                         : UTC 2013-05-27 18:02:27
Дата пометки                             : UTC 2013-05-27 18:03:09

Общее
Полное имя                               : C:\Users\User\Desktop\The Very Best Of The Doors. 40th Annivesary [ALAC]\CD1\13. End Of The Night.m4a
Формат                                   : MPEG-4
Профиль формата                          : Apple audio with iTunes info
Идентификатор кодека                     : M4A
Размер файла                             : 16,6 Мбайт
Продолжительность                        : 2 м. 52 с.
Режим общего битрейта                    : Переменный
Общий поток                              : 807 Кбит/сек
Альбом                                   : The Very Best Of The Doors [CD1]
Альбом/Исполнитель                       : The Doors
Трек                                     : End Of The Night
Трек/Положение                           : 13
Исполнитель                              : The Doors
Дата кодирования                         : UTC 2013-05-27 18:02:54
Дата пометки                             : UTC 2013-05-27 18:03:39
Программа кодирования                    : Easy CD-DA Extractor (http://www.poikosoft.com)
Обложка                                  : Yes

Аудио
Идентификатор                            : 1
Формат                                   : ALAC
Идентификатор кодека                     : alac
Идентификатор кодека/Информация          : Apple Lossless Audio Codec
Продолжительность                        : 2 м. 52 с.
Duration_LastFrame                       : -13 мс.
Вид битрейта                             : Переменный
Битрейт                                  : 774 Кбит/сек
Каналы                                   : 2 канала
Частота                                  : 44,1 КГц
Битовая глубина                          : 16 бит
Размер потока                            : 15,9 Мбайт (96%)
Язык                                     : English
Дата кодирования                         : UTC 2013-05-27 18:02:54
Дата пометки                             : UTC 2013-05-27 18:03:39

Общее
Полное имя                               : C:\Users\User\Desktop\The Very Best Of The Doors. 40th Annivesary [ALAC]\CD1\14. Five To One.m4a
Формат                                   : MPEG-4
Профиль формата                          : Apple audio with iTunes info
Идентификатор кодека                     : M4A
Размер файла                             : 29,5 Мбайт
Продолжительность                        : 4 м. 32 с.
Режим общего битрейта                    : Переменный
Общий поток                              : 908 Кбит/сек
Альбом                                   : The Very Best Of The Doors [CD1]
Альбом/Исполнитель                       : The Doors
Трек                                     : Five To One
Трек/Положение                           : 14
Исполнитель                              : The Doors
Дата кодирования                         : UTC 2013-05-27 18:03:10
Дата пометки                             : UTC 2013-05-27 18:03:59
Программа кодирования                    : Easy CD-DA Extractor (http://www.poikosoft.com)
Обложка                                  : Yes

Аудио
Идентификатор                            : 1
Формат                                   : ALAC
Идентификатор кодека                     : alac
Идентификатор кодека/Информация          : Apple Lossless Audio Codec
Продолжительность                        : 4 м. 32 с.
Duration_LastFrame                       : -68 мс.
Вид битрейта                             : Переменный
Битрейт                                  : 887 Кбит/сек
Каналы                                   : 2 канала
Частота                                  : 44,1 КГц
Битовая глубина                          : 16 бит
Размер потока                            : 28,9 Мбайт (98%)
Язык                                     : English
Дата кодирования                         : UTC 2013-05-27 18:03:10
Дата пометки                             : UTC 2013-05-27 18:03:59

Общее
Полное имя                               : C:\Users\User\Desktop\The Very Best Of The Doors. 40th Annivesary [ALAC]\CD1\15. When The Music's Over.m4a
Формат                                   : MPEG-4
Профиль формата                          : Apple audio with iTunes info
Идентификатор кодека                     : M4A
Размер файла                             : 64,9 Мбайт
Продолжительность                        : 11 м.
Режим общего битрейта                    : Переменный
Общий поток                              : 818 Кбит/сек
Альбом                                   : The Very Best Of The Doors [CD1]
Альбом/Исполнитель                       : The Doors
Трек                                     : When The Music's Over
Трек/Положение                           : 15
Исполнитель                              : The Doors
Дата кодирования                         : UTC 2013-05-27 18:03:39
Дата пометки                             : UTC 2013-05-27 18:04:39
Программа кодирования                    : Easy CD-DA Extractor (http://www.poikosoft.com)
Обложка                                  : Yes

Аудио
Идентификатор                            : 1
Формат                                   : ALAC
Идентификатор кодека                     : alac
Идентификатор кодека/Информация          : Apple Lossless Audio Codec
Продолжительность                        : 11 м.
Duration_LastFrame                       : -3 мс.
Вид битрейта                             : Переменный
Битрейт                                  : 809 Кбит/сек
Каналы                                   : 2 канала
Частота                                  : 44,1 КГц
Битовая глубина                          : 16 бит
Размер потока                            : 64,2 Мбайт (99%)
Язык                                     : English
Дата кодирования                         : UTC 2013-05-27 18:03:39
Дата пометки                             : UTC 2013-05-27 18:04:39

Общее
Полное имя                               : C:\Users\User\Desktop\The Very Best Of The Doors. 40th Annivesary [ALAC]\CD1\Folder.auCDtect.txt
Размер файла                             : 6,19 Кбайт

Общее
Полное имя                               : C:\Users\User\Desktop\The Very Best Of The Doors. 40th Annivesary [ALAC]\CD2\01. Bird Of Prey.m4a
Формат                                   : MPEG-4
Профиль формата                          : Apple audio with iTunes info
Идентификатор кодека                     : M4A
Размер файла                             : 6,13 Мбайт
Продолжительность                        : 1 м. 5 с.
Режим общего битрейта                    : Переменный
Общий поток                              : 781 Кбит/сек
Альбом                                   : The Very Best Of Disc 2
Альбом/Исполнитель                       : The Doors
Трек                                     : Bird Of Prey
Трек/Положение                           : 1
Исполнитель                              : The Doors
Дата кодирования                         : UTC 2013-05-27 18:03:59
Дата пометки                             : UTC 2013-05-27 18:04:00
Программа кодирования                    : Easy CD-DA Extractor (http://www.poikosoft.com)
Обложка                                  : Yes

Аудио
Идентификатор                            : 1
Формат                                   : ALAC
Идентификатор кодека                     : alac
Идентификатор кодека/Информация          : Apple Lossless Audio Codec
Продолжительность                        : 1 м. 5 с.
Duration_LastFrame                       : -78 мс.
Вид битрейта                             : Переменный
Битрейт                                  : 695 Кбит/сек
Каналы                                   : 2 канала
Частота                                  : 44,1 КГц
Битовая глубина                          : 16 бит
Размер потока                            : 5,46 Мбайт (89%)
Язык                                     : English
Дата кодирования                         : UTC 2013-05-27 18:03:59
Дата пометки                             : UTC 2013-05-27 18:04:00

Общее
Полное имя                               : C:\Users\User\Desktop\The Very Best Of The Doors. 40th Annivesary [ALAC]\CD2\02. Love Her Madly.m4a
Формат                                   : MPEG-4
Профиль формата                          : Apple audio with iTunes info
Идентификатор кодека                     : M4A
Размер файла                             : 25,7 Мбайт
Продолжительность                        : 3 м. 40 с.
Режим общего битрейта                    : Переменный
Общий поток                              : 979 Кбит/сек
Альбом                                   : The Very Best Of Disc 2
Альбом/Исполнитель                       : The Doors
Трек                                     : Love Her Madly
Трек/Положение                           : 2
Исполнитель                              : The Doors
Дата кодирования                         : UTC 2013-05-27 18:04:00
Дата пометки                             : UTC 2013-05-27 18:04:05
Программа кодирования                    : Easy CD-DA Extractor (http://www.poikosoft.com)
Обложка                                  : Yes

Аудио
Идентификатор                            : 1
Формат                                   : ALAC
Идентификатор кодека                     : alac
Идентификатор кодека/Информация          : Apple Lossless Audio Codec
Продолжительность                        : 3 м. 40 с.
Duration_LastFrame                       : -32 мс.
Вид битрейта                             : Переменный
Битрейт                                  : 953 Кбит/сек
Каналы                                   : 2 канала
Частота                                  : 44,1 КГц
Битовая глубина                          : 16 бит
Размер потока                            : 25,0 Мбайт (97%)
Язык                                     : English
Дата кодирования                         : UTC 2013-05-27 18:04:00
Дата пометки                             : UTC 2013-05-27 18:04:05

Общее
Полное имя                               : C:\Users\User\Desktop\The Very Best Of The Doors. 40th Annivesary [ALAC]\CD2\03. Riders On The Storm.m4a
Формат                                   : MPEG-4
Профиль формата                          : Apple audio with iTunes info
Идентификатор кодека                     : M4A
Размер файла                             : 43,8 Мбайт
Продолжительность                        : 7 м. 8 с.
Режим общего битрейта                    : Переменный
Общий поток                              : 856 Кбит/сек
Альбом                                   : The Very Best Of Disc 2
Альбом/Исполнитель                       : The Doors
Трек                                     : Riders On The Storm
Трек/Положение                           : 3
Исполнитель                              : The Doors
Дата кодирования                         : UTC 2013-05-27 18:04:05
Дата пометки                             : UTC 2013-05-27 18:04:16
Программа кодирования                    : Easy CD-DA Extractor (http://www.poikosoft.com)
Обложка                                  : Yes

Аудио
Идентификатор                            : 1
Формат                                   : ALAC
Идентификатор кодека                     : alac
Идентификатор кодека/Информация          : Apple Lossless Audio Codec
Продолжительность                        : 7 м. 8 с.
Duration_LastFrame                       : -39 мс.
Вид битрейта                             : Переменный
Битрейт                                  : 843 Кбит/сек
Каналы                                   : 2 канала
Частота                                  : 44,1 КГц
Битовая глубина                          : 16 бит
Размер потока                            : 43,1 Мбайт (98%)
Язык                                     : English
Дата кодирования                         : UTC 2013-05-27 18:04:05
Дата пометки                             : UTC 2013-05-27 18:04:16

Общее
Полное имя                               : C:\Users\User\Desktop\The Very Best Of The Doors. 40th Annivesary [ALAC]\CD2\04. Orange County Suite.m4a
Формат                                   : MPEG-4
Профиль формата                          : Apple audio with iTunes info
Идентификатор кодека                     : M4A
Размер файла                             : 30,9 Мбайт
Продолжительность                        : 5 м. 45 с.
Режим общего битрейта                    : Переменный
Общий поток                              : 750 Кбит/сек
Альбом                                   : The Very Best Of Disc 2
Альбом/Исполнитель                       : The Doors
Трек                                     : Orange County Suite
Трек/Положение                           : 4
Исполнитель                              : The Doors
Дата кодирования                         : UTC 2013-05-27 18:04:16
Дата пометки                             : UTC 2013-05-27 18:04:32
Программа кодирования                    : Easy CD-DA Extractor (http://www.poikosoft.com)
Обложка                                  : Yes

Аудио
Идентификатор                            : 1
Формат                                   : ALAC
Идентификатор кодека                     : alac
Идентификатор кодека/Информация          : Apple Lossless Audio Codec
Продолжительность                        : 5 м. 45 с.
Duration_LastFrame                       : -7 мс.
Вид битрейта                             : Переменный
Битрейт                                  : 733 Кбит/сек
Каналы                                   : 2 канала
Частота                                  : 44,1 КГц
Битовая глубина                          : 16 бит
Размер потока                            : 30,2 Мбайт (98%)
Язык                                     : English
Дата кодирования                         : UTC 2013-05-27 18:04:16
Дата пометки                             : UTC 2013-05-27 18:04:32

Общее
Полное имя                               : C:\Users\User\Desktop\The Very Best Of The Doors. 40th Annivesary [ALAC]\CD2\05. Runnin' Blue.m4a
Формат                                   : MPEG-4
Профиль формата                          : Apple audio with iTunes info
Идентификатор кодека                     : M4A
Размер файла                             : 15,9 Мбайт
Продолжительность                        : 2 м. 29 с.
Режим общего битрейта                    : Переменный
Общий поток                              : 893 Кбит/сек
Альбом                                   : The Very Best Of Disc 2
Альбом/Исполнитель                       : The Doors
Трек                                     : Runnin' Blue
Трек/Положение                           : 5
Исполнитель                              : The Doors
Дата кодирования                         : UTC 2013-05-27 18:04:33
Дата пометки                             : UTC 2013-05-27 18:04:50
Программа кодирования                    : Easy CD-DA Extractor (http://www.poikosoft.com)
Обложка                                  : Yes

Аудио
Идентификатор                            : 1
Формат                                   : ALAC
Идентификатор кодека                     : alac
Идентификатор кодека/Информация          : Apple Lossless Audio Codec
Продолжительность                        : 2 м. 29 с.
Duration_LastFrame                       : -45 мс.
Вид битрейта                             : Переменный
Битрейт                                  : 855 Кбит/сек
Каналы                                   : 2 канала
Частота                                  : 44,1 КГц
Битовая глубина                          : 16 бит
Размер потока                            : 15,2 Мбайт (96%)
Язык                                     : English
Дата кодирования                         : UTC 2013-05-27 18:04:33
Дата пометки                             : UTC 2013-05-27 18:04:50

Общее
Полное имя                               : C:\Users\User\Desktop\The Very Best Of The Doors. 40th Annivesary [ALAC]\CD2\06. Hello, I Love You.m4a
Формат                                   : MPEG-4
Профиль формата                          : Apple audio with iTunes info
Идентификатор кодека                     : M4A
Размер файла                             : 18,7 Мбайт
Продолжительность                        : 2 м. 42 с.
Режим общего битрейта                    : Переменный
Общий поток                              : 967 Кбит/сек
Альбом                                   : The Very Best Of Disc 2
Альбом/Исполнитель                       : The Doors
Трек                                     : Hello, I Love You
Трек/Положение                           : 6
Исполнитель                              : The Doors
Дата кодирования                         : UTC 2013-05-27 18:04:40
Дата пометки                             : UTC 2013-05-27 18:05:00
Программа кодирования                    : Easy CD-DA Extractor (http://www.poikosoft.com)
Обложка                                  : Yes

Аудио
Идентификатор                            : 1
Формат                                   : ALAC
Идентификатор кодека                     : alac
Идентификатор кодека/Информация          : Apple Lossless Audio Codec
Продолжительность                        : 2 м. 42 с.
Duration_LastFrame                       : -49 мс.
Вид битрейта                             : Переменный
Битрейт                                  : 931 Кбит/сек
Каналы                                   : 2 канала
Частота                                  : 44,1 КГц
Битовая глубина                          : 16 бит
Размер потока                            : 18,0 Мбайт (96%)
Язык                                     : English
Дата кодирования                         : UTC 2013-05-27 18:04:40
Дата пометки                             : UTC 2013-05-27 18:05:00

Общее
Полное имя                               : C:\Users\User\Desktop\The Very Best Of The Doors. 40th Annivesary [ALAC]\CD2\07. The WASP Texas Radio And The Big Beat.m4a
Формат                                   : MPEG-4
Профиль формата                          : Apple audio with iTunes info
Идентификатор кодека                     : M4A
Размер файла                             : 26,9 Мбайт
Продолжительность                        : 4 м. 15 с.
Режим общего битрейта                    : Переменный
Общий поток                              : 883 Кбит/сек
Альбом                                   : The Very Best Of Disc 2
Альбом/Исполнитель                       : The Doors
Трек                                     : The WASP Texas Radio And The Big Beat
Трек/Положение                           : 7
Исполнитель                              : The Doors
Дата кодирования                         : UTC 2013-05-27 18:04:50
Дата пометки                             : UTC 2013-05-27 18:05:15
Программа кодирования                    : Easy CD-DA Extractor (http://www.poikosoft.com)
Обложка                                  : Yes

Аудио
Идентификатор                            : 1
Формат                                   : ALAC
Идентификатор кодека                     : alac
Идентификатор кодека/Информация          : Apple Lossless Audio Codec
Продолжительность                        : 4 м. 15 с.
Duration_LastFrame                       : -57 мс.
Вид битрейта                             : Переменный
Битрейт                                  : 860 Кбит/сек
Каналы                                   : 2 канала
Частота                                  : 44,1 КГц
Битовая глубина                          : 16 бит
Размер потока                            : 26,2 Мбайт (97%)
Язык                                     : English
Дата кодирования                         : UTC 2013-05-27 18:04:50
Дата пометки                             : UTC 2013-05-27 18:05:15

Общее
Полное имя                               : C:\Users\User\Desktop\The Very Best Of The Doors. 40th Annivesary [ALAC]\CD2\08. Stoned Immaculate.m4a
Формат                                   : MPEG-4
Профиль формата                          : Apple audio with iTunes info
Идентификатор кодека                     : M4A
Размер файла                             : 10,1 Мбайт
Продолжительность                        : 1 м. 36 с.
Режим общего битрейта                    : Переменный
Общий поток                              : 882 Кбит/сек
Альбом                                   : The Very Best Of Disc 2
Альбом/Исполнитель                       : The Doors
Трек                                     : Stoned Immaculate
Трек/Положение                           : 8
Исполнитель                              : The Doors
Дата кодирования                         : UTC 2013-05-27 18:05:00
Дата пометки                             : UTC 2013-05-27 18:05:26
Программа кодирования                    : Easy CD-DA Extractor (http://www.poikosoft.com)
Обложка                                  : Yes

Аудио
Идентификатор                            : 1
Формат                                   : ALAC
Идентификатор кодека                     : alac
Идентификатор кодека/Информация          : Apple Lossless Audio Codec
Продолжительность                        : 1 м. 36 с.
Duration_LastFrame                       : -90 мс.
Вид битрейта                             : Переменный
Битрейт                                  : 822 Кбит/сек
Каналы                                   : 2 канала
Частота                                  : 44,1 КГц
Битовая глубина                          : 16 бит
Размер потока                            : 9,43 Мбайт (93%)
Язык                                     : English
Дата кодирования                         : UTC 2013-05-27 18:05:00
Дата пометки                             : UTC 2013-05-27 18:05:26

Общее
Полное имя                               : C:\Users\User\Desktop\The Very Best Of The Doors. 40th Annivesary [ALAC]\CD2\09. Soul Kitchen.m4a
Формат                                   : MPEG-4
Профиль формата                          : Apple audio with iTunes info
Идентификатор кодека                     : M4A
Размер файла                             : 23,2 Мбайт
Продолжительность                        : 3 м. 33 с.
Режим общего битрейта                    : Переменный
Общий поток                              : 911 Кбит/сек
Альбом                                   : The Very Best Of Disc 2
Альбом/Исполнитель                       : The Doors
Трек                                     : Soul Kitchen
Трек/Положение                           : 9
Исполнитель                              : The Doors
Дата кодирования                         : UTC 2013-05-27 18:05:15
Дата пометки                             : UTC 2013-05-27 18:05:45
Программа кодирования                    : Easy CD-DA Extractor (http://www.poikosoft.com)
Обложка                                  : Yes

Аудио
Идентификатор                            : 1
Формат                                   : ALAC
Идентификатор кодека                     : alac
Идентификатор кодека/Информация          : Apple Lossless Audio Codec
Продолжительность                        : 3 м. 33 с.
Duration_LastFrame                       : -91 мс.
Вид битрейта                             : Переменный
Битрейт                                  : 884 Кбит/сек
Каналы                                   : 2 канала
Частота                                  : 44,1 КГц
Битовая глубина                          : 16 бит
Размер потока                            : 22,5 Мбайт (97%)
Язык                                     : English
Дата кодирования                         : UTC 2013-05-27 18:05:15
Дата пометки                             : UTC 2013-05-27 18:05:45

Общее
Полное имя                               : C:\Users\User\Desktop\The Very Best Of The Doors. 40th Annivesary [ALAC]\CD2\10. Peace Frog.m4a
Формат                                   : MPEG-4
Профиль формата                          : Apple audio with iTunes info
Идентификатор кодека                     : M4A
Размер файла                             : 19,1 Мбайт
Продолжительность                        : 2 м. 58 с.
Режим общего битрейта                    : Переменный
Общий поток                              : 901 Кбит/сек
Альбом                                   : The Very Best Of Disc 2
Альбом/Исполнитель                       : The Doors
Трек                                     : Peace Frog
Трек/Положение                           : 10
Исполнитель                              : The Doors
Дата кодирования                         : UTC 2013-05-27 18:05:26
Дата пометки                             : UTC 2013-05-27 18:05:58
Программа кодирования                    : Easy CD-DA Extractor (http://www.poikosoft.com)
Обложка                                  : Yes

Аудио
Идентификатор                            : 1
Формат                                   : ALAC
Идентификатор кодека                     : alac
Идентификатор кодека/Информация          : Apple Lossless Audio Codec
Продолжительность                        : 2 м. 58 с.
Duration_LastFrame                       : -76 мс.
Вид битрейта                             : Переменный
Битрейт                                  : 869 Кбит/сек
Каналы                                   : 2 канала
Частота                                  : 44,1 КГц
Битовая глубина                          : 16 бит
Размер потока                            : 18,5 Мбайт (96%)
Язык                                     : English
Дата кодирования                         : UTC 2013-05-27 18:05:26
Дата пометки                             : UTC 2013-05-27 18:05:58

Общее
Полное имя                               : C:\Users\User\Desktop\The Very Best Of The Doors. 40th Annivesary [ALAC]\CD2\11. L.A. Woman.m4a
Формат                                   : MPEG-4
Профиль формата                          : Apple audio with iTunes info
Идентификатор кодека                     : M4A
Размер файла                             : 52,7 Мбайт
Продолжительность                        : 8 м. 0 с.
Режим общего битрейта                    : Переменный
Общий поток                              : 920 Кбит/сек
Альбом                                   : The Very Best Of Disc 2
Альбом/Исполнитель                       : The Doors
Трек                                     : L.A. Woman
Трек/Положение                           : 11
Исполнитель                              : The Doors
Дата кодирования                         : UTC 2013-05-27 18:05:45
Дата пометки                             : UTC 2013-05-27 18:06:26
Программа кодирования                    : Easy CD-DA Extractor (http://www.poikosoft.com)
Обложка                                  : Yes

Аудио
Идентификатор                            : 1
Формат                                   : ALAC
Идентификатор кодека                     : alac
Идентификатор кодека/Информация          : Apple Lossless Audio Codec
Продолжительность                        : 8 м. 0 с.
Duration_LastFrame                       : -27 мс.
Вид битрейта                             : Переменный
Битрейт                                  : 908 Кбит/сек
Каналы                                   : 2 канала
Частота                                  : 44,1 КГц
Битовая глубина                          : 16 бит
Размер потока                            : 52,0 Мбайт (99%)
Язык                                     : English
Дата кодирования                         : UTC 2013-05-27 18:05:45
Дата пометки                             : UTC 2013-05-27 18:06:26

Общее
Полное имя                               : C:\Users\User\Desktop\The Very Best Of The Doors. 40th Annivesary [ALAC]\CD2\12. Waiting For The Sun.m4a
Формат                                   : MPEG-4
Профиль формата                          : Apple audio with iTunes info
Идентификатор кодека                     : M4A
Размер файла                             : 27,9 Мбайт
Продолжительность                        : 4 м. 3 с.
Режим общего битрейта                    : Переменный
Общий поток                              : 960 Кбит/сек
Альбом                                   : The Very Best Of Disc 2
Альбом/Исполнитель                       : The Doors
Трек                                     : Waiting For The Sun
Трек/Положение                           : 12
Исполнитель                              : The Doors
Дата кодирования                         : UTC 2013-05-27 18:05:59
Дата пометки                             : UTC 2013-05-27 18:06:42
Программа кодирования                    : Easy CD-DA Extractor (http://www.poikosoft.com)
Обложка                                  : Yes

Аудио
Идентификатор                            : 1
Формат                                   : ALAC
Идентификатор кодека                     : alac
Идентификатор кодека/Информация          : Apple Lossless Audio Codec
Продолжительность                        : 4 м. 3 с.
Duration_LastFrame                       : -77 мс.
Вид битрейта                             : Переменный
Битрейт                                  : 936 Кбит/сек
Каналы                                   : 2 канала
Частота                                  : 44,1 КГц
Битовая глубина                          : 16 бит
Размер потока                            : 27,2 Мбайт (98%)
Язык                                     : English
Дата кодирования                         : UTC 2013-05-27 18:05:59
Дата пометки                             : UTC 2013-05-27 18:06:42

Общее
Полное имя                               : C:\Users\User\Desktop\The Very Best Of The Doors. 40th Annivesary [ALAC]\CD2\13. Touch Me.m4a
Формат                                   : MPEG-4
Профиль формата                          : Apple audio with iTunes info
Идентификатор кодека                     : M4A
Размер файла                             : 22,5 Мбайт
Продолжительность                        : 3 м. 13 с.
Режим общего битрейта                    : Переменный
Общий поток                              : 976 Кбит/сек
Альбом                                   : The Very Best Of Disc 2
Альбом/Исполнитель                       : The Doors
Трек                                     : Touch Me
Трек/Положение                           : 13
Исполнитель                              : The Doors
Дата кодирования                         : UTC 2013-05-27 18:06:26
Дата пометки                             : UTC 2013-05-27 18:07:12
Программа кодирования                    : Easy CD-DA Extractor (http://www.poikosoft.com)
Обложка                                  : Yes

Аудио
Идентификатор                            : 1
Формат                                   : ALAC
Идентификатор кодека                     : alac
Идентификатор кодека/Информация          : Apple Lossless Audio Codec
Продолжительность                        : 3 м. 13 с.
Duration_LastFrame                       : -14 мс.
Вид битрейта                             : Переменный
Битрейт                                  : 946 Кбит/сек
Каналы                                   : 2 канала
Частота                                  : 44,1 КГц
Битовая глубина                          : 16 бит
Размер потока                            : 21,9 Мбайт (97%)
Язык                                     : English
Дата кодирования                         : UTC 2013-05-27 18:06:26
Дата пометки                             : UTC 2013-05-27 18:07:12

Общее
Полное имя                               : C:\Users\User\Desktop\The Very Best Of The Doors. 40th Annivesary [ALAC]\CD2\14. The Changeling.m4a
Формат                                   : MPEG-4
Профиль формата                          : Apple audio with iTunes info
Идентификатор кодека                     : M4A
Размер файла                             : 29,5 Мбайт
Продолжительность                        : 4 м. 26 с.
Режим общего битрейта                    : Переменный
Общий поток                              : 931 Кбит/сек
Альбом                                   : The Very Best Of Disc 2
Альбом/Исполнитель                       : The Doors
Трек                                     : The Changeling
Трек/Положение                           : 14
Исполнитель                              : The Doors
Дата кодирования                         : UTC 2013-05-27 18:06:42
Дата пометки                             : UTC 2013-05-27 18:07:31
Программа кодирования                    : Easy CD-DA Extractor (http://www.poikosoft.com)
Обложка                                  : Yes

Аудио
Идентификатор                            : 1
Формат                                   : ALAC
Идентификатор кодека                     : alac
Идентификатор кодека/Информация          : Apple Lossless Audio Codec
Продолжительность                        : 4 м. 26 с.
Duration_LastFrame                       : -20 мс.
Вид битрейта                             : Переменный
Битрейт                                  : 909 Кбит/сек
Каналы                                   : 2 канала
Частота                                  : 44,1 КГц
Битовая глубина                          : 16 бит
Размер потока                            : 28,8 Мбайт (98%)
Язык                                     : English
Дата кодирования                         : UTC 2013-05-27 18:06:42
Дата пометки                             : UTC 2013-05-27 18:07:31

Общее
Полное имя                               : C:\Users\User\Desktop\The Very Best Of The Doors. 40th Annivesary [ALAC]\CD2\15. Wishful Sinful.m4a
Формат                                   : MPEG-4
Профиль формата                          : Apple audio with iTunes info
Идентификатор кодека                     : M4A
Размер файла                             : 20,1 Мбайт
Продолжительность                        : 2 м. 59 с.
Режим общего битрейта                    : Переменный
Общий поток                              : 941 Кбит/сек
Альбом                                   : The Very Best Of Disc 2
Альбом/Исполнитель                       : The Doors
Трек                                     : Wishful Sinful
Трек/Положение                           : 15
Исполнитель                              : The Doors
Дата кодирования                         : UTC 2013-05-27 18:07:12
Дата пометки                             : UTC 2013-05-27 18:08:03
Программа кодирования                    : Easy CD-DA Extractor (http://www.poikosoft.com)
Обложка                                  : Yes

Аудио
Идентификатор                            : 1
Формат                                   : ALAC
Идентификатор кодека                     : alac
Идентификатор кодека/Информация          : Apple Lossless Audio Codec
Продолжительность                        : 2 м. 59 с.
Duration_LastFrame                       : -3 мс.
Вид битрейта                             : Переменный
Битрейт                                  : 909 Кбит/сек
Каналы                                   : 2 канала
Частота                                  : 44,1 КГц
Битовая глубина                          : 16 бит
Размер потока                            : 19,4 Мбайт (97%)
Язык                                     : English
Дата кодирования                         : UTC 2013-05-27 18:07:12
Дата пометки                             : UTC 2013-05-27 18:08:03

Общее
Полное имя                               : C:\Users\User\Desktop\The Very Best Of The Doors. 40th Annivesary [ALAC]\CD2\16. Love Street.m4a
Формат                                   : MPEG-4
Профиль формата                          : Apple audio with iTunes info
Идентификатор кодека                     : M4A
Размер файла                             : 17,6 Мбайт
Продолжительность                        : 2 м. 57 с.
Режим общего битрейта                    : Переменный
Общий поток                              : 832 Кбит/сек
Альбом                                   : The Very Best Of Disc 2
Альбом/Исполнитель                       : The Doors
Трек                                     : Love Street
Трек/Положение                           : 16
Исполнитель                              : The Doors
Дата кодирования                         : UTC 2013-05-27 18:07:32
Дата пометки                             : UTC 2013-05-27 18:08:24
Программа кодирования                    : Easy CD-DA Extractor (http://www.poikosoft.com)
Обложка                                  : Yes

Аудио
Идентификатор                            : 1
Формат                                   : ALAC
Идентификатор кодека                     : alac
Идентификатор кодека/Информация          : Apple Lossless Audio Codec
Продолжительность                        : 2 м. 57 с.
Duration_LastFrame                       : -82 мс.
Вид битрейта                             : Переменный
Битрейт                                  : 800 Кбит/сек
Каналы                                   : 2 канала
Частота                                  : 44,1 КГц
Битовая глубина                          : 16 бит
Размер потока                            : 16,9 Мбайт (96%)
Язык                                     : English
Дата кодирования                         : UTC 2013-05-27 18:07:32
Дата пометки                             : UTC 2013-05-27 18:08:24

Общее
Полное имя                               : C:\Users\User\Desktop\The Very Best Of The Doors. 40th Annivesary [ALAC]\CD2\17. Ghost Song.m4a
Формат                                   : MPEG-4
Профиль формата                          : Apple audio with iTunes info
Идентификатор кодека                     : M4A
Размер файла                             : 26,2 Мбайт
Продолжительность                        : 4 м. 14 с.
Режим общего битрейта                    : Переменный
Общий поток                              : 865 Кбит/сек
Альбом                                   : The Very Best Of Disc 2
Альбом/Исполнитель                       : The Doors
Трек                                     : Ghost Song
Трек/Положение                           : 17
Исполнитель                              : The Doors
Дата кодирования                         : UTC 2013-05-27 18:08:03
Дата пометки                             : UTC 2013-05-27 18:08:59
Программа кодирования                    : Easy CD-DA Extractor (http://www.poikosoft.com)
Обложка                                  : Yes

Аудио
Идентификатор                            : 1
Формат                                   : ALAC
Идентификатор кодека                     : alac
Идентификатор кодека/Информация          : Apple Lossless Audio Codec
Продолжительность                        : 4 м. 14 с.
Duration_LastFrame                       : -39 мс.
Вид битрейта                             : Переменный
Битрейт                                  : 842 Кбит/сек
Каналы                                   : 2 канала
Частота                                  : 44,1 КГц
Битовая глубина                          : 16 бит
Размер потока                            : 25,5 Мбайт (97%)
Язык                                     : English
Дата кодирования                         : UTC 2013-05-27 18:08:03
Дата пометки                             : UTC 2013-05-27 18:08:59

Общее
Полное имя                               : C:\Users\User\Desktop\The Very Best Of The Doors. 40th Annivesary [ALAC]\CD2\18. Whiskey, Mystics and Men.m4a
Формат                                   : MPEG-4
Профиль формата                          : Apple audio with iTunes info
Идентификатор кодека                     : M4A
Размер файла                             : 16,3 Мбайт
Продолжительность                        : 2 м. 28 с.
Режим общего битрейта                    : Переменный
Общий поток                              : 920 Кбит/сек
Альбом                                   : The Very Best Of Disc 2
Альбом/Исполнитель                       : The Doors
Трек                                     : Whiskey, Mystics and Men
Трек/Положение                           : 18
Исполнитель                              : The Doors
Дата кодирования                         : UTC 2013-05-27 18:08:25
Дата пометки                             : UTC 2013-05-27 18:09:23
Программа кодирования                    : Easy CD-DA Extractor (http://www.poikosoft.com)
Обложка                                  : Yes

Аудио
Идентификатор                            : 1
Формат                                   : ALAC
Идентификатор кодека                     : alac
Идентификатор кодека/Информация          : Apple Lossless Audio Codec
Продолжительность                        : 2 м. 28 с.
Duration_LastFrame                       : -62 мс.
Вид битрейта                             : Переменный
Битрейт                                  : 882 Кбит/сек
Каналы                                   : 2 канала
Частота                                  : 44,1 КГц
Битовая глубина                          : 16 бит
Размер потока                            : 15,6 Мбайт (96%)
Язык                                     : English
Дата кодирования                         : UTC 2013-05-27 18:08:25
Дата пометки                             : UTC 2013-05-27 18:09:22

Общее
Полное имя                               : C:\Users\User\Desktop\The Very Best Of The Doors. 40th Annivesary [ALAC]\CD2\19. Roadhouse Blues.m4a
Формат                                   : MPEG-4
Профиль формата                          : Apple audio with iTunes info
Идентификатор кодека                     : M4A
Размер файла                             : 28,4 Мбайт
Продолжительность                        : 4 м. 7 с.
Режим общего битрейта                    : Переменный
Общий поток                              : 963 Кбит/сек
Альбом                                   : The Very Best Of Disc 2
Альбом/Исполнитель                       : The Doors
Трек                                     : Roadhouse Blues
Трек/Положение                           : 19
Исполнитель                              : The Doors
Дата кодирования                         : UTC 2013-05-27 18:08:59
Дата пометки                             : UTC 2013-05-27 18:09:57
Программа кодирования                    : Easy CD-DA Extractor (http://www.poikosoft.com)
Обложка                                  : Yes

Аудио
Идентификатор                            : 1
Формат                                   : ALAC
Идентификатор кодека                     : alac
Идентификатор кодека/Информация          : Apple Lossless Audio Codec
Продолжительность                        : 4 м. 7 с.
Duration_LastFrame                       : -58 мс.
Вид битрейта                             : Переменный
Битрейт                                  : 940 Кбит/сек
Каналы                                   : 2 канала
Частота                                  : 44,1 КГц
Битовая глубина                          : 16 бит
Размер потока                            : 27,7 Мбайт (98%)
Язык                                     : English
Дата кодирования                         : UTC 2013-05-27 18:08:59
Дата пометки                             : UTC 2013-05-27 18:09:57

Общее
Полное имя                               : C:\Users\User\Desktop\The Very Best Of The Doors. 40th Annivesary [ALAC]\CD2\Folder.auCDtect.txt
Размер файла                             : 7,56 Кбайт

Просмотр доступен только для зарегистрированных пользователей
Время раздачи: 24/7 до 3 скачавших
[NNM-Club.ru]_The Very Best Of The Doors. 40th Annivesary [ALAC].torrent
 Торрент: Платиновая раздача  Зарегистрирован
 
Скачать


 Зарегистрирован:   28 Май 2013 16:13:12
 Размер:   879 MB  (
 Рейтинг:   5 (Голосов: 38)
 Поблагодарили:   170
 Проверка:   Оформление проверено модератором 29 Май 2013 10:39:43
Как cкачать  ·  Как раздать  ·  Правильно оформить  ·  Поднять ратио!  
megaherz33
Стаж: 11 лет 5 мес.
Сообщений: 508
Ratio: 5.617
100%
russia.gif
Спасибо, забираю!

_________________
Чистота - залог здоровья, порядок - прежде всего!
HP Compaq 6200 Pro Microtower
Windows 11 Pro x64 Build 22483.1011
CIS Premium v.12.2.2.8012
MX Linux 19.4 KDE
sdivinorum
Стаж: 12 лет
Сообщений: 681
Ratio: 37.221
100%
Откуда: Донецьк
ukraine.gif
Благодарю.

_________________
"Лишь утратив всё до конца, мы обретаем свободу." ©
CafeTea ®
Покровитель талантов
Стаж: 10 лет 5 мес.
Сообщений: 513
Ratio: 6.698
Поблагодарили: 20421
100%
megaherz33
sdivinorum
на здоровье.
ведь от любимой музыки поднимается настроение) хорошее настроение - залог здоровья))) =)
пуляGF
Стаж: 11 лет 1 мес.
Сообщений: 104
Ratio: 1.423
100%
Откуда: украина
ukraine.gif
круто ! Благодарю!
Показать сообщения:   
Начать новую тему   Ответить на тему    Торрент-трекер NNM-Club -> Аудио и Видео -> Музыка Lossless (ALAC) Часовой пояс: GMT + 3
Страница 1 из 1