Классический форум-трекер
canvas not supported
Нас вместе: 4 232 309

Варвары и воры / Heathens and Thieves (2012) HDRip


 
 
RSS
Начать новую тему   Ответить на тему    Торрент-трекер NNM-Club -> Зарубежное кино -> Зарубежные Фильмы (SD)
Автор Сообщение
eXPpectant ®
Стаж: 14 лет 5 мес.
Сообщений: 2457
Ratio: 1628.264
Раздал: 18.08 TB
Поблагодарили: 308034
100%
Откуда: Нижний Тагил + Дмитров
russia.gif
Варвары и воры / Heathens and Thieves (2012) HDRip
Русское название: Варвары и воры
Оригинальное название: Heathens and Thieves
Год выпуска: 2012
Производство: США / Orofino
Жанр: Триллер, Детектив, Вестерн
Описание фильма:
Двое беглецов, осуждённых за убийство, скрываясь в лесу от преследователей, встречают федерального маршала, который предлагает им разжиться золотом, ограбив ранчо китайца. Желая избегнуть убийств и трат на сообщников, один из беглецов устраивается на ранчо помощником, надеясь мирным путём забрать найденное золото. Но о возможности наживы знают и представитель власти - шериф, и отставной полковник с тремя мексиканцами-головорезами, действующий по поручению ограбленного банка…
Режиссер: Меган Петерсон, Джон Синклер
Актеры: Эндрю Симпсон, Гвендолин Йео, Дон Суэйзи, Ричард Дойл, Майкл Роберт Брэндон, Том Проктер, Джоэль Патрик Берри, Джесси Флорес, Джон А. Лоренц
Продолжительность: 01:49:51
Перевод: Многоголосый закадровый, профессиональный (НТВ+)

Видеокодек: Xvid
Битрейт видео: ~2084 kb/s
Размер кадра: 720x400
Качество видео: HDRip
Аудио#1: Русский: АС3 2.0, 192 kb/s
Аудио#2: Английский: АС3 5.1, 384 kb/s
Общее
Полное имя : D:\Торрент раздача\Varvary.i.vory.2012.P.HDRip.2100Mb.avi
Формат : AVI
Формат/Информация : Audio Video Interleave
Профиль формата : OpenDML
Размер файла : 2,05 Гбайт
Продолжительность : 1 ч. 49 м.
Общий поток : 2678 Кбит/сек
Программа кодирования : VirtualDubMod 1.5.10.2 (build 2540/release)
Библиотека кодирования : VirtualDubMod build 2540/release

Видео
Идентификатор : 0
Формат : MPEG-4 Visual
Профиль формата : Advanced Simple@L5
Параметр BVOP формата : 2
Параметр QPel формата : Нет
Параметр GMC формата : Без точки перехода
Параметр матрицы формата : Default (MPEG)
Идентификатор кодека : XVID
Идентификатор кодека/Подсказка : XviD
Продолжительность : 1 ч. 49 м.
Битрейт : 2084 Кбит/сек
Ширина : 720 пикселей
Высота : 400 пикселей
Соотношение сторон : 16:9
Частота кадров : 23,976 кадра/сек
Цветовое пространство : YUV
Субдискретизация насыщенности : 4:2:0
Битовая глубина : 8 бит
Тип развёртки : Прогрессивная
Метод сжатия : С потерями
Бит/(Пиксели*Кадры) : 0.302
Размер потока : 1,60 Гбайт (78%)
Библиотека кодирования : XviD 1.2.1 (UTC 2008-12-04)

Аудио #1
Идентификатор : 1
Формат : AC-3
Формат/Информация : Audio Coding 3
Расширение режима : CM (complete main)
Параметр Endianness формата : Big
Идентификатор кодека : 2000
Продолжительность : 1 ч. 49 м.
Вид битрейта : Постоянный
Битрейт : 192 Кбит/сек
Каналы : 2 канала
Расположение каналов : Front: L R
Частота : 48,0 КГц
Битовая глубина : 16 бит
Метод сжатия : С потерями
Размер потока : 151 Мбайт (7%)
Выравнивание : Разделение по промежуткам
Продолжительность промежутка : 42 мс. (1,00 видеокадр)
Время предзагрузки промежутка : 500 мс.

Аудио #2
Идентификатор : 2
Формат : AC-3
Формат/Информация : Audio Coding 3
Расширение режима : CM (complete main)
Параметр Endianness формата : Big
Идентификатор кодека : 2000
Продолжительность : 1 ч. 49 м.
Вид битрейта : Постоянный
Битрейт : 384 Кбит/сек
Каналы : 6 каналов
Расположение каналов : Front: L C R, Side: L R, LFE
Частота : 48,0 КГц
Битовая глубина : 16 бит
Метод сжатия : С потерями
Размер потока : 302 Мбайт (14%)
Выравнивание : Разделение по промежуткам
Продолжительность промежутка : 42 мс. (1,00 видеокадр)
Время предзагрузки промежутка : 500 мс.
Скриншоты:

Время раздачи: 24/7
[NNM-Club.ru]_Varvary.i.vory.2012.P.HDRip.2100Mb.torrent
 Торрент: Платиновая раздача  Зарегистрирован
 
Скачать


Примагнититься
 Зарегистрирован:   28 Май 2013 19:08:12
 Размер:   2.05 GB  (
 Рейтинг:   4.5 (Голосов: 31)
 Поблагодарили:   128
 Проверка:   Оформление проверено модератором 29 Май 2013 10:34:44
Как cкачать  ·  Как раздать  ·  Правильно оформить  ·  Поднять ратио!  
Показать сообщения:   
Начать новую тему   Ответить на тему    Торрент-трекер NNM-Club -> Зарубежное кино -> Зарубежные Фильмы (SD) Часовой пояс: GMT + 3
Страница 1 из 1