Классический форум-трекер
canvas not supported
Нас вместе: 4 232 304

Сотрудник / Collaborator (2011) DVDRip


 
 
RSS
Начать новую тему   Ответить на тему    Торрент-трекер NNM-Club -> Зарубежное кино -> Зарубежные Фильмы (SD)
Автор Сообщение
eXPpectant ®
Стаж: 14 лет 5 мес.
Сообщений: 2457
Ratio: 1628.264
Раздал: 18.08 TB
Поблагодарили: 308063
100%
Откуда: Нижний Тагил + Дмитров
russia.gif
Сотрудник / Collaborator (2011) DVDRip
Русское название: Сотрудник
Оригинальное название: Collaborator
Год выпуска: 2011
Производство: США, Канада / DViant Films, This Is That Productions
Жанр: Драма, Комедия
Описание фильма:
Драматурга, у которого и так не слишком удачный период в карьере и в семейной жизни, начинает доставать сосед, мечтающий от него избавиться.
Режиссер: Мартин Донован
Актеры: Мартин Донован, Дэвид Морс, Оливия Уильямс, Мелисса Ауф дер Маур, Айлин Райан, Джулиан Ричингс, Кэтрин Хелмонд, Марк-Кэмерон Фрайзер, Филлип Палмер, Джим Пирри
Продолжительность: 01:23:32
Перевод: Двуголосый закадровый, профессиональный (студия Elrom)

Дата мировой премьеры: 4 июля 2011
Видеокодек: Xvid
Битрейт видео: ~1139 kb/s
Размер кадра: 704x384
Качество видео: DVDRip
Аудиокодек: MP3 (2 ch)
Битрейт аудио: 96 kb/s
Общее
Полное имя : D:\Торрент раздача\Sotrudnik.2011.DVDrip.XviD.Rus.avi
Формат : AVI
Формат/Информация : Audio Video Interleave
Размер файла : 744 Мбайт
Продолжительность : 1 ч. 23 м.
Общий поток : 1245 Кбит/сек
Название фильма : Sotrudnik.2011
Формат оригинала/Распространитель : Collaborator.2011.DVDRip.XviD-S4A.avi
Жанр : Comedy, Drama
Правообладатель : 25KADR
Примечание : DVO (Elrom studio)

Видео
Идентификатор : 0
Формат : MPEG-4 Visual
Профиль формата : Advanced Simple@L5
Параметр BVOP формата : 2
Параметр QPel формата : Нет
Параметр GMC формата : Без точки перехода
Параметр матрицы формата : Default (H.263)
Идентификатор кодека : XVID
Идентификатор кодека/Подсказка : XviD
Продолжительность : 1 ч. 23 м.
Битрейт : 1139 Кбит/сек
Ширина : 704 пикселя
Высота : 384 пикселя
Соотношение сторон : 1,85:1
Частота кадров : 25,000 кадров/сек
Цветовое пространство : YUV
Субдискретизация насыщенности : 4:2:0
Битовая глубина : 8 бит
Тип развёртки : Прогрессивная
Метод сжатия : С потерями
Бит/(Пиксели*Кадры) : 0.169
Размер потока : 681 Мбайт (92%)
Библиотека кодирования : XviD 1.2.1 (UTC 2008-12-04)

Аудио
Идентификатор : 1
Формат : MPEG Audio
Версия формата : Version 1
Профиль формата : Layer 3
Режим : Joint stereo
Расширение режима : Intensity Stereo
Идентификатор кодека : 55
Идентификатор кодека/Подсказка : MP3
Продолжительность : 1 ч. 23 м.
Вид битрейта : Постоянный
Битрейт : 96,0 Кбит/сек
Каналы : 2 канала
Частота : 48,0 КГц
Метод сжатия : С потерями
Размер потока : 57,4 Мбайт (8%)
Выравнивание : Соединение по промежуткам
Продолжительность промежутка : 40 мс. (1,00 видеокадр)
Время предзагрузки промежутка : 504 мс.
Язык : Russian
Скриншоты:

Время раздачи: 08:00-23:00 (МСК)
[NNM-Club.ru]_Sotrudnik.2011.DVDrip.torrent
 Торрент:   Зарегистрирован
 
Зарегистрируйтесь и скачайте торрент!
14.8 KB

Примагнититься
 Зарегистрирован:   28 Май 2013 20:04:56
 Размер:   744 MB  (
 Рейтинг:   4.4 (Голосов: 16)
 Поблагодарили:   74
 Проверка:   Оформление проверено модератором 29 Май 2013 10:40:24
Как cкачать  ·  Как раздать  ·  Правильно оформить  ·  Поднять ратио!  
Показать сообщения:   
Начать новую тему   Ответить на тему    Торрент-трекер NNM-Club -> Зарубежное кино -> Зарубежные Фильмы (SD) Часовой пояс: GMT + 3
Страница 1 из 1