Классический форум-трекер
canvas not supported
Нас вместе: 4 232 304

Варвары и воры / Heathens and Thieves (2012) HDRip


 
 
RSS
Начать новую тему   Ответить на тему    Торрент-трекер NNM-Club -> Зарубежное кино -> Зарубежные Фильмы (SD)
Автор Сообщение
eXPpectant ®
Стаж: 14 лет 5 мес.
Сообщений: 2457
Ratio: 1628.264
Раздал: 18.08 TB
Поблагодарили: 308063
100%
Откуда: Нижний Тагил + Дмитров
russia.gif
Варвары и воры / Heathens and Thieves (2012) HDRip
Русское название: Варвары и воры
Оригинальное название: Heathens and Thieves
Год выпуска: 2012
Производство: США / Orofino
Жанр: Триллер, Детектив, Вестерн
Описание фильма:
Двое беглецов, осуждённых за убийство, скрываясь в лесу от преследователей, встречают федерального маршала, который предлагает им разжиться золотом, ограбив ранчо китайца. Желая избегнуть убийств и трат на сообщников, один из беглецов устраивается на ранчо помощником, надеясь мирным путём забрать найденное золото. Но о возможности наживы знают и представитель власти - шериф, и отставной полковник с тремя мексиканцами-головорезами, действующий по поручению ограбленного банка…
Режиссер: Меган Петерсон, Джон Синклер
Актеры: Эндрю Симпсон, Гвендолин Йео, Дон Суэйзи, Ричард Дойл, Майкл Роберт Брэндон, Том Проктер, Джоэль Патрик Берри, Джесси Флорес, Джон А. Лоренц
Продолжительность: 01:49:51
Перевод: Многоголосый закадровый, профессиональный (НТВ+)

Видеокодек: Xvid
Битрейт видео: ~812 kb/s
Размер кадра: 640x352
Качество видео: HDRip
Аудиокодек: MP3 (2 ch)
Битрейт аудио: 128 kb/s
Общее
Полное имя : D:\Торрент раздача\Varvary.i.vory.2012.P.HDRip.745.avi
Формат : AVI
Формат/Информация : Audio Video Interleave
Размер файла : 746 Мбайт
Продолжительность : 1 ч. 49 м.
Общий поток : 949 Кбит/сек
Программа кодирования : VirtualDubMod 1.5.10.2 (build 2540/release)
Библиотека кодирования : VirtualDubMod build 2540/release

Видео
Идентификатор : 0
Формат : MPEG-4 Visual
Профиль формата : Advanced Simple@L5
Параметр BVOP формата : 2
Параметр QPel формата : Нет
Параметр GMC формата : Без точки перехода
Параметр матрицы формата : Default (MPEG)
Идентификатор кодека : XVID
Идентификатор кодека/Подсказка : XviD
Продолжительность : 1 ч. 49 м.
Битрейт : 812 Кбит/сек
Ширина : 640 пикселей
Высота : 352 пикселя
Соотношение сторон : 16:9
Частота кадров : 23,976 кадра/сек
Цветовое пространство : YUV
Субдискретизация насыщенности : 4:2:0
Битовая глубина : 8 бит
Тип развёртки : Прогрессивная
Метод сжатия : С потерями
Бит/(Пиксели*Кадры) : 0.150
Размер потока : 638 Мбайт (86%)
Библиотека кодирования : XviD 1.2.1 (UTC 2008-12-04)

Аудио
Идентификатор : 1
Формат : MPEG Audio
Версия формата : Version 1
Профиль формата : Layer 3
Режим : Joint stereo
Идентификатор кодека : 55
Идентификатор кодека/Подсказка : MP3
Продолжительность : 1 ч. 49 м.
Вид битрейта : Постоянный
Битрейт : 128 Кбит/сек
Каналы : 2 канала
Частота : 48,0 КГц
Метод сжатия : С потерями
Размер потока : 101 Мбайт (13%)
Выравнивание : Соединение по промежуткам
Продолжительность промежутка : 42 мс. (1,00 видеокадр)
Время предзагрузки промежутка : 504 мс.
Скриншоты:

Время раздачи: 08:00-23:00 (МСК)
[NNM-Club.ru]_Varvary.i.vory.2012.P.HDRip.745.torrent
 Торрент:   Зарегистрирован
 
Зарегистрируйтесь и скачайте торрент!
14.9 KB

Примагнититься
 Зарегистрирован:   28 Май 2013 20:53:34
 Размер:   746 MB  (
 Рейтинг:   4.4 (Голосов: 14)
 Поблагодарили:   76
 Проверка:   Оформление проверено модератором 29 Май 2013 10:33:39
Как cкачать  ·  Как раздать  ·  Правильно оформить  ·  Поднять ратио!  
Показать сообщения:   
Начать новую тему   Ответить на тему    Торрент-трекер NNM-Club -> Зарубежное кино -> Зарубежные Фильмы (SD) Часовой пояс: GMT + 3
Страница 1 из 1