Классический форум-трекер
canvas not supported
Нас вместе: 4 232 965

Роботы / Robots (2005) HDRip


 
 
RSS
Начать новую тему   Ответить на тему    Торрент-трекер NNM-Club -> Мультфильмы -> Зарубежные Мультфильмы 21-го века (SD)
Автор Сообщение
Marioxo ®
Стаж: 11 лет 5 мес.
Сообщений: 61
Ratio: 8.309
Раздал: 3.58 TB
Поблагодарили: 10500
100%
russia.gif
Роботы / Robots (2005) HDRip
Русское название: Роботы
Оригинальное название: Robots
Год выпуска: 2005
Производство: США
Жанр: Комедия, Детский, Приключения

Описание:
Действие фильма разворачивается в мире, населенном исключительно роботами. Как и в мире людей у них есть своя социальная лестница, свои герои и изгои. Молодой гений Родни мечтает сделать мир роботов лучше. А еще ему очень нравится одна молоденькая сексапильная роботша Каппи. Но на пути всех его планов стоит ведущий дизайнер роботов Биг Велд, принадлежащий к тому же сословию, что и Каппи…



Режиссер: Карлос Салдана / Carlos Saldanha
Персонажи: Юэн МакГрегор, Робин Уильямс, Холли Берри, Мел Брукс, Джим Броудбент, Пол Джаматти, Дэн Хедайя, Грег Киннер, Стенли Туччи, Паула Абдул

Продолжительность: 01:29:47
Перевод: Дублированный
Язык субтитров: Отсутствуют

Видеокодек: Xvid
Битрейт видео: ~1022 kbps avg
Размер кадра: 624x336
Качество видео: HDRip
Аудиокодек: AC3 2.0
Битрейт аудио: ~192kbps
Общее
Полное имя : D:\Торренты на раздачу\Роботы\Robots.avi
Формат : AVI
Формат/Информация : Audio Video Interleave
Размер файла : 745 Мбайт
Продолжительность : 1 ч. 29 м.
Общий поток : 1160 Кбит/сек
Программа кодирования : VirtualDubMod 1.5.10.3 | www.virtualdub-fr.org || (build 2550/release)
Библиотека кодирования : VirtualDubMod build 2550/release

Видео
Идентификатор : 0
Формат : MPEG-4 Visual
Профиль формата : Advanced Simple@L5
Параметр BVOP формата : 1
Параметр QPel формата : Нет
Параметр GMC формата : Без точки перехода
Параметр матрицы формата : Выборочная
Идентификатор кодека : XVID
Идентификатор кодека/Подсказка : XviD
Продолжительность : 1 ч. 29 м.
Битрейт : 1023 Кбит/сек
Ширина : 624 пикселя
Высота : 336 пикселей
Соотношение сторон : 1,85:1
Частота кадров : 23,976 кадра/сек
Цветовое пространство : YUV
Субдискретизация насыщенности : 4:2:0
Битовая глубина : 8 бит
Тип развёртки : Прогрессивная
Метод сжатия : С потерями
Бит/(Пиксели*Кадры) : 0.203
Размер потока : 657 Мбайт (88%)
Библиотека кодирования : XviD 63

Аудио
Идентификатор : 1
Формат : MPEG Audio
Версия формата : Version 1
Профиль формата : Layer 3
Идентификатор кодека : 55
Идентификатор кодека/Подсказка : MP3
Продолжительность : 1 ч. 29 м.
Вид битрейта : Постоянный
Битрейт : 128 Кбит/сек
Каналы : 2 канала
Частота : 48,0 КГц
Метод сжатия : С потерями
Размер потока : 82,2 Мбайт (11%)
Выравнивание : Соединение по промежуткам
Продолжительность промежутка : 42 мс. (1,00 видеокадр)
Время предзагрузки промежутка : 504 мс.
Библиотека кодирования : LAME3.98r
Настройки программы : -m s -V 4 -q 2 -lowpass 17 -b 128
Скриншоты:


ВСЕ РЕЛИЗЫ Роботы

Время раздачи: ~ С 14:00 до 03:00 (10-15 скачавших)
[NNM-Club.ru]_Robots.torrent
 Торрент: Платиновая раздача  Зарегистрирован
 
Скачать


Примагнититься
 Зарегистрирован:   28 Май 2013 22:58:08
 Размер:   745 MB  (
 Рейтинг:   4.8 (Голосов: 51)
 Поблагодарили:   242
 Проверка:   Оформление проверено модератором 28 Май 2013 23:26:39
Как cкачать  ·  Как раздать  ·  Правильно оформить  ·  Поднять ратио!  
Показать сообщения:   
Начать новую тему   Ответить на тему    Торрент-трекер NNM-Club -> Мультфильмы -> Зарубежные Мультфильмы 21-го века (SD) Часовой пояс: GMT + 3
Страница 1 из 1