Классический форум-трекер
canvas not supported
Нас вместе: 4 233 491

Гладиаторы Рима / Gladiatori di Roma (2012) DVDRip


 
 
RSS
Начать новую тему   Ответить на тему    Торрент-трекер NNM-Club -> Мультфильмы -> Зарубежные Мультфильмы 21-го века (SD)
Автор Сообщение
Marioxo ®
Стаж: 11 лет 5 мес.
Сообщений: 61
Ratio: 8.309
Раздал: 3.58 TB
Поблагодарили: 10500
100%
russia.gif
Гладиаторы Рима / Gladiatori di Roma (2012) DVDRip
Русское название: Гладиаторы Рима
Оригинальное название: Gladiatori di Roma
Год выпуска: 2012
Производство: Италия
Жанр: Комедия, Приключения, Детский

Описание:
Страшное извержение вулкана разрушает город Помпеи, и маленький Тим остается сиротой. Его спаситель, генерал Кирон, отправляет Тима в школу гладиаторов, но юный лентяй упорно не желает становиться бойцом. Повзрослев, Тим влюбляется в красавицу Лючиллу. Но чтобы покорить её сердце, нужно стать настоящим героем. Прекрасная Диана, богиня охоты и мастер по гладиаторским боям, берется за тренировки Тима перед первым боем. Но получится ли у Тима победить самого себя и стать настоящим мужчиной?



Режиссер: Иджинио Страффи / Iginio Straffi
Персонажи: Лука Арджентеро, Лаура Кьятти, Джулианна Хаф, Белен Родригес

Продолжительность: 01:30:16
Перевод: Дублированный [Лицензия]
Язык субтитров: Отсутствуют

Видеокодек: Xvid
Битрейт видео: ~945 Kbps
Размер кадра: 656x272
Качество видео: DVDRip
Аудиокодек: MP3 2 ch
Битрейт аудио: ~128 Kbps
Общее
Полное имя : D:\Торренты на раздачу\Гладиаторы Рима\Gladiatori_di_Roma.avi
Формат : AVI
Формат/Информация : Audio Video Interleave
Размер файла : 699 Мбайт
Продолжительность : 1 ч. 30 м.
Общий поток : 1082 Кбит/сек
Программа кодирования : VirtualDubMod 1.5.10.2 (build 2542/release)
Библиотека кодирования : VirtualDubMod build 2542/release

Видео
Идентификатор : 0
Формат : MPEG-4 Visual
Профиль формата : Advanced Simple@L5
Параметр BVOP формата : 2
Параметр QPel формата : Нет
Параметр GMC формата : Без точки перехода
Параметр матрицы формата : Выборочная
Идентификатор кодека : XVID
Идентификатор кодека/Подсказка : XviD
Продолжительность : 1 ч. 30 м.
Битрейт : 945 Кбит/сек
Ширина : 656 пикселей
Высота : 272 пикселя
Соотношение сторон : 2,40:1
Частота кадров : 25,000 кадров/сек
Цветовое пространство : YUV
Субдискретизация насыщенности : 4:2:0
Битовая глубина : 8 бит
Тип развёртки : Прогрессивная
Метод сжатия : С потерями
Бит/(Пиксели*Кадры) : 0.212
Размер потока : 610 Мбайт (87%)
Библиотека кодирования : XviD 64

Аудио
Идентификатор : 1
Формат : MPEG Audio
Версия формата : Version 1
Профиль формата : Layer 3
Идентификатор кодека : 55
Идентификатор кодека/Подсказка : MP3
Продолжительность : 1 ч. 30 м.
Вид битрейта : Постоянный
Битрейт : 128 Кбит/сек
Каналы : 2 канала
Частота : 48,0 КГц
Метод сжатия : С потерями
Размер потока : 82,6 Мбайт (12%)
Выравнивание : Соединение по промежуткам
Продолжительность промежутка : 40 мс. (1,00 видеокадр)
Время предзагрузки промежутка : 504 мс.
Библиотека кодирования : LAME3.99r
Настройки программы : -m s -V 4 -q 2 -lowpass 17 -b 128
Скриншоты:


Все релизы "Гладиаторы Рима" на сайте

Время раздачи: ~ С 14:00 до 03:00 (10-15 скачавших)
[NNM-Club.ru]_Gladiatori_di_Roma.avi.torrent
 Торрент: Платиновая раздача  Зарегистрирован
 
Скачать


Примагнититься
 Зарегистрирован:   29 Май 2013 18:48:14
 Размер:   699 MB  (
 Рейтинг:   4.8 (Голосов: 53)
 Поблагодарили:   234
 Проверка:   Оформление проверено модератором 29 Май 2013 19:42:23
Как cкачать  ·  Как раздать  ·  Правильно оформить  ·  Поднять ратио!  
maks33198
Стаж: 11 лет 7 мес.
Сообщений: 121
Ratio: 2.28
Раздал: 322 GB
66.87%
Откуда: череповец
russia.gif
не чего так посмотреть можно.спасибо

_________________
win-8.проф-(x64)
Показать сообщения:   
Начать новую тему   Ответить на тему    Торрент-трекер NNM-Club -> Мультфильмы -> Зарубежные Мультфильмы 21-го века (SD) Часовой пояс: GMT + 3
Страница 1 из 1