Классический форум-трекер
canvas not supported
Нас вместе: 4 232 304

Пауки 3D / Spiders (2013) HDRip


 
 
RSS
Начать новую тему   Ответить на тему    Торрент-трекер NNM-Club -> Зарубежное кино -> Зарубежные Фильмы (SD)
Автор Сообщение
eXPpectant ®
Стаж: 14 лет 5 мес.
Сообщений: 2457
Ratio: 1628.264
Раздал: 18.08 TB
Поблагодарили: 308063
100%
Откуда: Нижний Тагил + Дмитров
russia.gif
Пауки 3D / Spiders (2013) HDRip
Русское название: Пауки 3D
Оригинальное название: Spiders
Год выпуска: 2013
Производство: США / Nu Image Films
Жанр: Фантастика, Триллер
Описание фильма:
Падение старой советской космической станции стало причиной того, что в Нью-Йоркской подземке расплодился новый вид ядовитых пауков. К тому же пауки начинают быстро прибавлять в размерах и… вскоре по улицам города уже вышагивали лохматые лапы, принадлежащие огромным паукам.
Режиссер: Тибор Такач
Продюсер: Боаз Дэвидсон, Дэнни Димборт, Лати Гробман
Актеры: Патрик Малдун, Криста Кэмпбелл, Уильям Хоуп, Антоанета Ёрданова, Шелли Варод, Джон Макк, Йонас Токингтон, Атанас Сребрев, Сара Браун, Пит Ли-Уилсон
Продолжительность: 01:29:38
Перевод: Одноголосый закадровый, любительский

Дата мировой премьеры: 8 февраля 2013

Видеокодек: Xvid
Битрейт видео: ~960 kb/s
Размер кадра: 720x384
Качество видео: HDRip
Аудиокодек: MP3 (2 ch)
Битрейт аудио: 128 kb/s
Общее
Полное имя : D:\Торрент раздача\Spiders.2013.L1.HDRip.700Mb.avi
Формат : AVI
Формат/Информация : Audio Video Interleave
Размер файла : 704 Мбайт
Продолжительность : 1 ч. 29 м.
Общий поток : 1098 Кбит/сек
Программа кодирования : VirtualDubMod 1.5.10.2 (build 2542/release)
Библиотека кодирования : VirtualDubMod build 2542/release

Видео
Идентификатор : 0
Формат : MPEG-4 Visual
Профиль формата : Advanced Simple@L5
Параметр BVOP формата : 2
Параметр QPel формата : Нет
Параметр GMC формата : Без точки перехода
Параметр матрицы формата : Default (MPEG)
Режим смешивания : Сжатый битовый поток
Идентификатор кодека : XVID
Идентификатор кодека/Подсказка : XviD
Продолжительность : 1 ч. 29 м.
Битрейт : 960 Кбит/сек
Ширина : 720 пикселей
Высота : 384 пикселя
Соотношение сторон : 1,85:1
Частота кадров : 23,976 кадра/сек
Цветовое пространство : YUV
Субдискретизация насыщенности : 4:2:0
Битовая глубина : 8 бит
Тип развёртки : Прогрессивная
Метод сжатия : С потерями
Бит/(Пиксели*Кадры) : 0.145
Размер потока : 616 Мбайт (87%)
Библиотека кодирования : XviD 1.2.1 (UTC 2008-12-04)

Аудио
Идентификатор : 1
Формат : MPEG Audio
Версия формата : Version 1
Профиль формата : Layer 3
Режим : Joint stereo
Расширение режима : MS Stereo
Идентификатор кодека : 55
Идентификатор кодека/Подсказка : MP3
Продолжительность : 1 ч. 29 м.
Вид битрейта : Постоянный
Битрейт : 128 Кбит/сек
Каналы : 2 канала
Частота : 44,1 КГц
Метод сжатия : С потерями
Размер потока : 82,1 Мбайт (12%)
Выравнивание : Разделение по промежуткам
Продолжительность промежутка : 42 мс. (1,00 видеокадр)
Время предзагрузки промежутка : 500 мс.
Библиотека кодирования : LAME3.99r
Настройки программы : -m j -V 4 -q 2 -lowpass 17 -b 128
Скриншоты:

Время раздачи: 24/7
[NNM-Club.ru]_Spiders.2013.L1.HDRip.700Mb.torrent
 Торрент: Платиновая раздача  Зарегистрирован
 
Скачать


Примагнититься
 Зарегистрирован:   29 Май 2013 19:16:37
 Размер:   704 MB  (
 Рейтинг:   4.2 (Голосов: 34)
 Поблагодарили:   127
 Проверка:   Оформление проверено модератором 30 Май 2013 00:19:20
Как cкачать  ·  Как раздать  ·  Правильно оформить  ·  Поднять ратио!  
venera237
Стаж: 14 лет 6 мес.
Сообщений: 201
Ratio: 17.634
Поблагодарили: 2
100%
ukraine.gif
То зомби, то пауки и главное во всем виновата советская космическая станция.
Буржуи видать что то курят :)
IDVsbruck
Стаж: 14 лет 4 мес.
Сообщений: 45
Ratio: 4.441
100%
ukraine.gif
Рейтинги что-то пугают ...
roma-ni4
Стаж: 13 лет 8 мес.
Сообщений: 280
Ratio: 23.413
Раздал: 45.07 TB
100%
Откуда: Кузбасс
russia.gif
такие фильмы можно комментировать очень лаконично: шляпа...шляпа 3Д
RazDvaTre
Стаж: 13 лет 9 мес.
Сообщений: 1236
Ratio: 2.558
93.71%
Откуда: New Васюки
pirates.png
ешкин кот - на глаза для пауков денег не хватило. только на 2 глаза.
Seerius
Стаж: 12 лет 1 мес.
Сообщений: 22
Ratio: 10.938
Поблагодарили: 186
100%
хорошо ещё на все ноги хватило.. а то на 2 ходили бы )))
paramedik1
Uploader 100+
 
Стаж: 14 лет 7 мес.
Сообщений: 4880
Ratio: 154.581
Поблагодарили: 2898
100%
ussr.gif
Не Асилум.... печально :(
jimaul
Только чтение
Стаж: 15 лет 2 мес.
Сообщений: 579
Ratio: 6.463
100%
russia.gif
умора , но нашлось уже 56 почитателя данного калла )))
mullerprokof2
Стаж: 13 лет
Сообщений: 251
Ratio: 0.598
100%
belarus.gif
отличный фильм
такие пауки страшные
посмотрю завтра ещё раз только вот отпустит......
MAIKLLL
Стаж: 14 лет 3 мес.
Сообщений: 257
Ratio: 2.31
86.78%
Откуда: Новороссия
ussr.gif
фильм сильнейший
Drakooosha
Стаж: 11 лет 1 мес.
Сообщений: 94
Ratio: 23.694
Поблагодарили: 141
100%
witch.png
Проходняк для почитателей писателей 90х годов прошлого века ))))
plotinus
Стаж: 14 лет 2 мес.
Сообщений: 108
Ratio: 0.541
Поблагодарили: 375
100%
ukraine.gif
Видать, у них все еще четко поддерживается в сознании образ врага.
Дарзамат
Стаж: 13 лет
Сообщений: 216
Ratio: 20.748
Раздал: 3.636 TB
100%
russia.gif
поржал над описанием. спасибо))
CURAZH
Стаж: 11 лет 7 мес.
Сообщений: 155
Ratio: 43.133
100%
Откуда: Север Столицы
russia.gif
venera237 писал(а): Перейти к сообщению
То зомби, то пауки и главное во всем виновата советская космическая станция.
Буржуи видать что то курят :)
+1 :смех:

_________________
Если ты не решишься на это сегодня,завтра будет таким же,как вчера!
fart530
Стаж: 10 лет 11 мес.
Сообщений: 4
Ratio: 4.044
Раздал: 266 GB
100%
pirates.png
Чёт паучки в проплешинах, лишай у них что ли
Показать сообщения:   
Начать новую тему   Ответить на тему    Торрент-трекер NNM-Club -> Зарубежное кино -> Зарубежные Фильмы (SD) Часовой пояс: GMT + 3
Страница 1 из 1