Классический форум-трекер
canvas not supported
Нас вместе: 4 233 498

Диномама / Dino Time (2012) BDRip


 
 
RSS
Начать новую тему   Ответить на тему    Торрент-трекер NNM-Club -> Мультфильмы -> Зарубежные Мультфильмы 21-го века (SD)
Автор Сообщение
Marioxo ®
Стаж: 11 лет 5 мес.
Сообщений: 61
Ratio: 8.309
Раздал: 3.58 TB
Поблагодарили: 10500
100%
russia.gif
Диномама / Dino Time (2012) BDRip
Русское название: Диномама
Оригинальное название: Dino Time
Год выпуска: 2012
Производство: США, Корея Южная
Жанр: Комедия, Приключения, Детский

Описание:
Эрни, его сестра Джулия и лучший друг Макс — неразлучная троица. Однажды, друзья без спроса залезли в странное устройство, которое сконструировал папа Макса, и случайно нажали кнопку запуска. Устройство оказалось машиной времени, и ребята очутились в Юрском периоде, прямо в гнезде Тираннозавра. Но вот радость: самка гигантского ящера приняла ребят за своих детенышей. Но не все, конечно, так безоблачно в мире хищников. Кое-кто мечтает полакомиться непрошеными гостями! Друзьям нужно немедленно уносить ноги и подумать о возвращении. Но как это сделать, если важная деталь машины исчезла?



Режиссер: Юн-сок Чхве / Yoon-suk Choi, Джон Кафка / John Kafka
Персонажи: Джейн Линч, Памела Адлон, Роб Шнайдер, Мелани Гриффит, Тара Стронг, Стивен Болдуин, Уильям Болдуин, Юрий Ловенталь, Джессика Ди Чикко, Мелани Абрамофф

Продолжительность: 01:25:26
Перевод: Дублированный
Язык субтитров: Отсутствуют

Видеокодек: Xvid
Битрейт видео: ~1082 kbps avg
Размер кадра: 656x352
Качество видео: BDRip
Аудиокодек: MP3 2 ch
Битрейт аудио: ~128.00 kbps avg
Общее
Полное имя : D:\Торренты на раздачу\Диномама\Dino_Time.avi
Формат : AVI
Формат/Информация : Audio Video Interleave
Размер файла : 745 Мбайт
Продолжительность : 1 ч. 25 м.
Общий поток : 1219 Кбит/сек
Программа кодирования : VirtualDubMod 1.5.10.3 | www.virtualdub-fr.org || (build 2550/release)
Библиотека кодирования : VirtualDubMod build 2550/release

Видео
Идентификатор : 0
Формат : MPEG-4 Visual
Профиль формата : Advanced Simple@L5
Параметр BVOP формата : 2
Параметр QPel формата : Нет
Параметр GMC формата : Без точки перехода
Параметр матрицы формата : Выборочная
Идентификатор кодека : XVID
Идентификатор кодека/Подсказка : XviD
Продолжительность : 1 ч. 25 м.
Битрейт : 1082 Кбит/сек
Ширина : 656 пикселей
Высота : 352 пикселя
Соотношение сторон : 1,85:1
Частота кадров : 23,976 кадра/сек
Цветовое пространство : YUV
Субдискретизация насыщенности : 4:2:0
Битовая глубина : 8 бит
Тип развёртки : Прогрессивная
Метод сжатия : С потерями
Бит/(Пиксели*Кадры) : 0.195
Размер потока : 661 Мбайт (89%)
Библиотека кодирования : XviD 65

Аудио
Идентификатор : 1
Формат : MPEG Audio
Версия формата : Version 1
Профиль формата : Layer 3
Идентификатор кодека : 55
Идентификатор кодека/Подсказка : MP3
Продолжительность : 1 ч. 25 м.
Вид битрейта : Постоянный
Битрейт : 128 Кбит/сек
Каналы : 2 канала
Частота : 48,0 КГц
Метод сжатия : С потерями
Размер потока : 78,1 Мбайт (10%)
Выравнивание : Соединение по промежуткам
Продолжительность промежутка : 42 мс. (1,00 видеокадр)
Время предзагрузки промежутка : 504 мс.
Библиотека кодирования : LAME3.99r
Настройки программы : -m s -V 4 -q 2 -lowpass 17 -b 128
Скриншоты:


Все релизы "Диномама" на сайте

Время раздачи: ~ С 14:00 до 03:00 (10-15 скачавших)
[NNM-Club.ru]_Dino_Time.torrent
 Торрент: Платиновая раздача  Зарегистрирован
 
Скачать


Примагнититься
 Зарегистрирован:   29 Май 2013 20:16:22
 Размер:   745 MB  (
 Рейтинг:   4.8 (Голосов: 33)
 Поблагодарили:   170
 Проверка:   Оформление проверено модератором 29 Май 2013 20:31:59
Как cкачать  ·  Как раздать  ·  Правильно оформить  ·  Поднять ратио!  
vovan-bob
Стаж: 10 лет 11 мес.
Сообщений: 198
Ratio: 56.231
Раздал: 12.2 TB
100%
Откуда: СССР
ussr.gif
спасибо!!!
Показать сообщения:   
Начать новую тему   Ответить на тему    Торрент-трекер NNM-Club -> Мультфильмы -> Зарубежные Мультфильмы 21-го века (SD) Часовой пояс: GMT + 3
Страница 1 из 1