Классический форум-трекер
canvas not supported
Нас вместе: 4 232 315

Одиннадцатое сентября 1683 года / 11 settembre 1683 / Bitwa pod Wiedniem (2012) DVDRip


 
 
RSS
Начать новую тему   Ответить на тему    Торрент-трекер NNM-Club -> Зарубежное кино -> Зарубежные Фильмы (SD)
Автор Сообщение
eXPpectant ®
Стаж: 14 лет 5 мес.
Сообщений: 2457
Ratio: 1628.264
Раздал: 18.08 TB
Поблагодарили: 308034
100%
Откуда: Нижний Тагил + Дмитров
russia.gif
Одиннадцатое сентября 1683 года / 11 settembre 1683 / Bitwa pod Wiedniem (2012) DVDRip
Русское название: Одиннадцатое сентября 1683 года
Оригинальное название: 11 settembre 1683 / Bitwa pod Wiedniem
Год выпуска: 2012
Производство: Италия, Польша
Жанр: Драма, Приключения, История
Описание фильма:
Летом 1683-го года 300 тысяч солдат Османской империи под командованием великого визиря Кара-Мустафы начали осаду Вены. Обладание этим городом стало бы первым шагом к покорению всей Европы. Вену защищала лишь горстка солдат, император Леопольд трусил и намеревался покинуть город. Казалось, что Христианский мир не устоит против армии, равной по численности которой мир еще не видел...
Режиссер: Ренцо Мартинелли
Актеры: Ф. Мюррэй Абрахам, Йорго Воягис, Антонио Цупо, Кристина Серафини, Ежи Сколимовский, Энрико Ло Версо, Джорджо Лупано, Петр Адамчик, Алиция Бахледа, Марьюс Киву
Продолжительность: 01:54:37
Перевод: Многоголосый закадровый, любительский

Дата мировой премьеры: 11 сентября 2012
Видеокодек: Xvid
Битрейт видео: ~1954 kb/s
Размер кадра: 720x304
Качество видео: DVDRip
Аудио#1: Русский - AC3 2.0, 224 kb/s
Аудио#2: Английский - AC3 2.0, 224 kb/s
Аудио#3: Польский - AC3 2.0, 224 kb/s
Общее
Полное имя : D:\Торрент раздача\11.sentiabria.1683.goda.2012.L.DVDRip.avi
Формат : AVI
Формат/Информация : Audio Video Interleave
Профиль формата : OpenDML
Размер файла : 2,12 Гбайт
Продолжительность : 1 ч. 54 м.
Общий поток : 2651 Кбит/сек
Программа кодирования : VirtualDubMod 1.5.10.3 | www.virtualdub-fr.org || (build 2550/release)
Библиотека кодирования : VirtualDubMod build 2550/release

Видео
Идентификатор : 0
Формат : MPEG-4 Visual
Профиль формата : Advanced Simple@L5
Параметр BVOP формата : 2
Параметр QPel формата : Нет
Параметр GMC формата : Без точки перехода
Параметр матрицы формата : Default (H.263)
Идентификатор кодека : XVID
Идентификатор кодека/Подсказка : XviD
Продолжительность : 1 ч. 54 м.
Битрейт : 1954 Кбит/сек
Ширина : 720 пикселей
Высота : 304 пикселя
Соотношение сторон : 2,35:1
Частота кадров : 25,000 кадров/сек
Цветовое пространство : YUV
Субдискретизация насыщенности : 4:2:0
Битовая глубина : 8 бит
Тип развёртки : Прогрессивная
Метод сжатия : С потерями
Бит/(Пиксели*Кадры) : 0.357
Размер потока : 1,56 Гбайт (74%)
Библиотека кодирования : XviD 65

Аудио #1
Идентификатор : 1
Формат : AC-3
Формат/Информация : Audio Coding 3
Расширение режима : CM (complete main)
Параметр Endianness формата : Big
Идентификатор кодека : 2000
Продолжительность : 1 ч. 54 м.
Вид битрейта : Постоянный
Битрейт : 224 Кбит/сек
Каналы : 2 канала
Расположение каналов : Front: L R
Частота : 48,0 КГц
Битовая глубина : 16 бит
Метод сжатия : С потерями
Размер потока : 184 Мбайт (8%)
Выравнивание : Разделение по промежуткам
Продолжительность промежутка : 40 мс. (1,00 видеокадр)
Время предзагрузки промежутка : 500 мс.

Аудио #2
Идентификатор : 2
Формат : AC-3
Формат/Информация : Audio Coding 3
Расширение режима : CM (complete main)
Параметр Endianness формата : Big
Идентификатор кодека : 2000
Продолжительность : 1 ч. 54 м.
Вид битрейта : Постоянный
Битрейт : 224 Кбит/сек
Каналы : 2 канала
Расположение каналов : Front: L R
Частота : 48,0 КГц
Битовая глубина : 16 бит
Метод сжатия : С потерями
Размер потока : 184 Мбайт (8%)
Выравнивание : Разделение по промежуткам
Продолжительность промежутка : 40 мс. (1,00 видеокадр)
Время предзагрузки промежутка : 500 мс.

Аудио #3
Идентификатор : 3
Формат : AC-3
Формат/Информация : Audio Coding 3
Расширение режима : CM (complete main)
Параметр Endianness формата : Big
Идентификатор кодека : 2000
Продолжительность : 1 ч. 54 м.
Вид битрейта : Постоянный
Битрейт : 224 Кбит/сек
Каналы : 2 канала
Расположение каналов : Front: L R
Частота : 48,0 КГц
Битовая глубина : 16 бит
Метод сжатия : С потерями
Размер потока : 184 Мбайт (8%)
Выравнивание : Разделение по промежуткам
Продолжительность промежутка : 40 мс. (1,00 видеокадр)
Время предзагрузки промежутка : 500 мс.
Скриншоты:

Время раздачи: 24/7
[NNM-Club.ru]_11.sentiabria.1683.goda.2012.L.DVDRip.torrent
 Торрент: Платиновая раздача  Зарегистрирован
 
Скачать


Примагнититься
 Зарегистрирован:   29 Май 2013 23:06:54
 Размер:   2.12 GB  (
 Рейтинг:   4.5 (Голосов: 27)
 Поблагодарили:   118
 Проверка:   Оформление проверено модератором 30 Май 2013 23:48:12
Как cкачать  ·  Как раздать  ·  Правильно оформить  ·  Поднять ратио!  
rizam999
Стаж: 14 лет 11 мес.
Сообщений: 8
Ratio: 0.693
100%
greece.gif
Спасибо за раздачу. Нравятся исторические фильмы
vfrc100
Стаж: 12 лет 9 мес.
Сообщений: 151
Ratio: 2.537
100%
Буду качать. Давно не видел классического батального европейского кино. Все больше комиксы голливудские где римская кавалерия со стременами шеголяет. Возможно не фонтан, ну и ладно... все равно костюмированные исторические и масштабные киношки иногда люблю посмотреть.
arzhanov
Стаж: 13 лет 11 мес.
Сообщений: 123
Ratio: 2.473
Раздал: 3.345 TB
100%
Откуда: г. Шахтерск о.Сахалин
russia.gif
спасибо !!!
vfrc100
Стаж: 12 лет 9 мес.
Сообщений: 151
Ratio: 2.537
100%
vfrc100 писал(а): Перейти к сообщению
Буду качать. Давно не видел классического батального европейского кино. Все больше комиксы голливудские где римская кавалерия со стременами шеголяет. Возможно не фонтан, ну и ладно... все равно костюмированные исторические и масштабные киношки иногда люблю посмотреть.

Мда, посмотрел... Фильмец и так еле тянет на просмотр и хороший перевод придал бы возможно шарма, но этот добил фильму.
Такими голосами и интонациями петрушку на ярмарке озвучивать ну или приговоры зачитывать или расписание объявлять.
Показать сообщения:   
Начать новую тему   Ответить на тему    Торрент-трекер NNM-Club -> Зарубежное кино -> Зарубежные Фильмы (SD) Часовой пояс: GMT + 3
Страница 1 из 1