Классический форум-трекер
canvas not supported
Нас вместе: 4 233 689

Стальной гигант / The Iron Giant (1999) HDTVRip


 
 
RSS
Начать новую тему   Ответить на тему    Торрент-трекер NNM-Club -> Мультфильмы -> Зарубежные Мультфильмы 20-го века (SD)
Автор Сообщение
Marioxo ®
Стаж: 11 лет 6 мес.
Сообщений: 61
Ratio: 8.309
Раздал: 3.58 TB
Поблагодарили: 10500
100%
russia.gif
Стальной гигант / The Iron Giant (1999) HDTVRip
Русское название: Стальной гигант
Оригинальное название: The Iron Giant
Производство: США
Год выпуска: 1999
Жанр: Приключения, Комедия, Семейный

Описание:
Жители тихой американской провинции становятся свидетелями ослепительной вспышки и падения огромного летающего объекта. Спустя несколько дней мальчуган по имени Хогарт Хьюз находит в окрестностях гигантского робота, прилетевшего на Землю из далекой космической галактики.
Несмотря на свой грозный вид, инопланетный гость оказывается добрейшим созданием. Между ним и отважным мальчишкой завязывается настоящая дружба. Но узнавшие о существовании робота правительство и военные решили уничтожить пришельца. Хогарт — единственный, кто может спасти стального гиганта…



Режиссер: Брэд Бёрд
Персонажи: Дженнифер Энистон, Гарри Конник мл., Вин Дизель, Джеймс Гэммон, Клорис Личмен, Кристофер МакДональд, Джон Махони, Эли Мариентал, М. Эммет Уолш

Продолжительность: 01:26:29
Перевод: Дублированный
Язык субтитров: Отсутствуют

Видеокодек: Xvid
Битрейт видео: ~1071 kbps avg
Размер кадра: 688x288
Качество видео: HDTVRip
Аудиокодек: MP3 2 ch
Битрейт аудио: ~128 kbps
Общее
Полное имя : D:\Торренты на раздачу\Стальной гигант\The_Iron_Giant.avi
Формат : AVI
Формат/Информация : Audio Video Interleave
Размер файла : 747 Мбайт
Продолжительность : 1 ч. 26 м.
Общий поток : 1208 Кбит/сек
Программа кодирования : VirtualDubMod 1.5.10.2 (build 2540/release)
Библиотека кодирования : VirtualDubMod build 2540/release

Видео
Идентификатор : 0
Формат : MPEG-4 Visual
Профиль формата : Advanced Simple@L5
Параметр BVOP формата : 1
Параметр QPel формата : Нет
Параметр GMC формата : Без точки перехода
Параметр матрицы формата : Default (MPEG)
Идентификатор кодека : XVID
Идентификатор кодека/Подсказка : XviD
Продолжительность : 1 ч. 26 м.
Битрейт : 1071 Кбит/сек
Ширина : 688 пикселей
Высота : 288 пикселей
Соотношение сторон : 2,40:1
Частота кадров : 23,976 кадра/сек
Цветовое пространство : YUV
Субдискретизация насыщенности : 4:2:0
Битовая глубина : 8 бит
Тип развёртки : Прогрессивная
Метод сжатия : С потерями
Бит/(Пиксели*Кадры) : 0.225
Размер потока : 662 Мбайт (89%)
Библиотека кодирования : XviD 1.2.1 (UTC 2008-12-04)

Аудио
Идентификатор : 1
Формат : MPEG Audio
Версия формата : Version 1
Профиль формата : Layer 3
Идентификатор кодека : 55
Идентификатор кодека/Подсказка : MP3
Продолжительность : 1 ч. 26 м.
Вид битрейта : Постоянный
Битрейт : 128 Кбит/сек
Каналы : 2 канала
Частота : 48,0 КГц
Метод сжатия : С потерями
Размер потока : 79,2 Мбайт (11%)
Выравнивание : Соединение по промежуткам
Продолжительность промежутка : 42 мс. (1,00 видеокадр)
Время предзагрузки промежутка : 504 мс.
Библиотека кодирования : LAME3.98r
Настройки программы : -m s -V 4 -q 2 -lowpass 17 -b 128
Скриншоты:


Все релизы "Стальной гигант" на сайте

Время раздачи: ~ С 14:00 до 03:00 (10-15 скачавших)
[NNM-Club.ru]_The_Iron_Giant.torrent
 Торрент: Платиновая раздача  Зарегистрирован
 
Скачать


Примагнититься
 Зарегистрирован:   30 Май 2013 18:40:02
 Размер:   747 MB  (
 Рейтинг:   4.9 (Голосов: 59)
 Поблагодарили:   222
 Проверка:   Оформление проверено модератором 30 Май 2013 20:16:22
Как cкачать  ·  Как раздать  ·  Правильно оформить  ·  Поднять ратио!  
madboqka
Стаж: 13 лет 9 мес.
Сообщений: 88
Ratio: 0.902
Раздал: 2.439 TB
100%
russia.gif
Отличный мультик, я маленький плакал в финале
STILL47DEATH
Стаж: 13 лет 9 мес.
Сообщений: 230
Ratio: 10.444
100%
Откуда: Москва
russia.gif
Мульт просто замечательный, видел, когда маленький был. Да и сейчас мог бы посмотреть )
tofor
Стаж: 13 лет 6 мес.
Сообщений: 130
Ratio: 9.152
Раздал: 4.451 TB
Поблагодарили: 6
100%
Откуда: СПБ
russia.gif
Очень Добрый и хороший мульт !
не знаю почему ещё его не смотрел ... (Уже исправил)

Очччень понравился))) спс Marioxo

_________________
Раздам всё что не приколочено!!!
А что приколочено на то гвоздодёр есть....
Ооо Великий "Провайдер" дай всем такой скорости!) а мне без обрывов.........хы хы хы )
Сергей Волосатов
Стаж: 13 лет 4 мес.
Сообщений: 19
Ratio: 59.658
100%
russia.gif
Отличный мульт! Рекомендую. :да:
Greyzi
 
Стаж: 14 лет 6 мес.
Сообщений: 1710
Ratio: 21.793
Раздал: 15.07 TB
Поблагодарили: 18965
100%
ukraine.gif
В детстве просто обожал его :смущение:
nalapapam
Стаж: 14 лет 2 мес.
Сообщений: 11
Ratio: 7.992
100%
Хороший мульт. Советую посмотреть.
BRS_08
Стаж: 11 лет 2 мес.
Сообщений: 19
Ratio: 13.522
53.62%
интересный мульт
Показать сообщения:   
Начать новую тему   Ответить на тему    Торрент-трекер NNM-Club -> Мультфильмы -> Зарубежные Мультфильмы 20-го века (SD) Часовой пояс: GMT + 3
Страница 1 из 1