Классический форум-трекер
canvas not supported
Нас вместе: 4 232 304

Два Джека / Two Jacks (2012) HDTVRip


 
 
RSS
Начать новую тему   Ответить на тему    Торрент-трекер NNM-Club -> Зарубежное кино -> Зарубежные Фильмы (SD)
Автор Сообщение
eXPpectant ®
Стаж: 14 лет 5 мес.
Сообщений: 2457
Ratio: 1628.264
Раздал: 18.08 TB
Поблагодарили: 308063
100%
Откуда: Нижний Тагил + Дмитров
russia.gif
Два Джека / Two Jacks (2012) HDTVRip
Русское название: Два Джека
Оригинальное название: Two Jacks
Год выпуска: 2012
Производство: США / Rough Diamond Productions
Жанр: Драма, Комедия
Описание фильма:
Стареющий фильммейкер возвращается в Голливуд, чтобы найти финансирование для своего нового проекта. Его ожидают невероятные приключения, море выпивки, общения с сексуальными женщинами, битва со студийными боссами, охота за деньгами, а также игра в покер в попытке найти необходимые финансы.
Режиссер: Бернард Роуз
Актеры: Сиенна Миллер, Билли Зейн, Скотт Берн, Дэнни Хьюстон, Джек Хьюстон, Жаклин Биссет, Рози Феллнер, Изабелла Мико, Ханна Коули, Дэвид Липпер, Джэми Харрис, Лидия Хёрст, Деметриус Наварро, Лаура Клери, Гай Бернет, Джули Ариелла Маркус, Карли Стил, Йен Дункан, Даниэль Фаральдо, Джулия Верден, Дэниэл О’Мира, Питер Фолди, Анна Ройс, Ханс Обма, Люсинда Клер, Брайан Фойстер, Этен Лэйн, Мелани Пирсон, Кристина Харрисон
Продолжительность: 01:27:21
Перевод: Двуголосый закадровый (НТВ+)

Дата мировой премьеры: 25 августа 2012
Видеокодек: Xvid
Битрейт видео: ~1700 Кбит/с
Размер кадра: 720x400
Качество видео: HDTVRip
Аудиокодек: AC3 5.1
Битрейт аудио: 448 Кбит/с
Общее
Полное имя : D:\Торрент раздача\Dva.dzheka.2012.HDTVRip.avi
Формат : AVI
Формат/Информация : Audio Video Interleave
Размер файла : 1,32 Гбайт
Продолжительность : 1 ч. 27 м.
Общий поток : 2157 Кбит/сек
Программа кодирования : VirtualDubMod 1.5.10.2 (build 2540/release)
Библиотека кодирования : VirtualDubMod build 2540/release

Видео
Идентификатор : 0
Формат : MPEG-4 Visual
Профиль формата : Advanced Simple@L5
Параметр BVOP формата : 2
Параметр QPel формата : Нет
Параметр GMC формата : Без точки перехода
Параметр матрицы формата : Default (MPEG)
Идентификатор кодека : XVID
Идентификатор кодека/Подсказка : XviD
Продолжительность : 1 ч. 27 м.
Битрейт : 1700 Кбит/сек
Ширина : 720 пикселей
Высота : 400 пикселей
Соотношение сторон : 16:9
Частота кадров : 25,000 кадров/сек
Цветовое пространство : YUV
Субдискретизация насыщенности : 4:2:0
Битовая глубина : 8 бит
Тип развёртки : Прогрессивная
Метод сжатия : С потерями
Бит/(Пиксели*Кадры) : 0.236
Размер потока : 1,04 Гбайт (79%)
Библиотека кодирования : XviD 1.2.1 (UTC 2008-12-04)

Аудио
Идентификатор : 1
Формат : AC-3
Формат/Информация : Audio Coding 3
Расширение режима : CM (complete main)
Параметр Endianness формата : Big
Идентификатор кодека : 2000
Продолжительность : 1 ч. 27 м.
Вид битрейта : Постоянный
Битрейт : 448 Кбит/сек
Каналы : 6 каналов
Расположение каналов : Front: L C R, Side: L R, LFE
Частота : 48,0 КГц
Битовая глубина : 16 бит
Метод сжатия : С потерями
Размер потока : 279 Мбайт (21%)
Выравнивание : Разделение по промежуткам
Продолжительность промежутка : 40 мс. (1,00 видеокадр)
Время предзагрузки промежутка : 500 мс.
Скриншоты:

Время раздачи: 24/7
[NNM-Club.ru]_Dva.dzheka.2012.HDTVRip.torrent
 Торрент: Платиновая раздача  Зарегистрирован
 
Скачать


Примагнититься
 Зарегистрирован:   30 Май 2013 20:16:24
 Размер:   1.32 GB  (
 Рейтинг:   4.3 (Голосов: 13)
 Поблагодарили:   92
 Проверка:   Оформление проверено модератором 31 Май 2013 10:46:49
Как cкачать  ·  Как раздать  ·  Правильно оформить  ·  Поднять ратио!  
Apri0ri
Стаж: 13 лет 8 мес.
Сообщений: 767
Ratio: 3.17
100%
russia.gif
Пара валетов
dr12
Стаж: 13 лет 2 мес.
Сообщений: 13
Ratio: 24.256
94.62%
Откуда: Россия
russia.gif
Оказывается, это очень вольная экранизация (или пародия?) на Льва Толстого, "Два гусара"! Только здесь гусары стали продюсерами, а "Гусар" - их фамилией. Отца и сына играют актеры - отец и сын.
Стоит посмотреть. Если не пакость, то должно быть забавно.
Показать сообщения:   
Начать новую тему   Ответить на тему    Торрент-трекер NNM-Club -> Зарубежное кино -> Зарубежные Фильмы (SD) Часовой пояс: GMT + 3
Страница 1 из 1