Классический форум-трекер
canvas not supported
Нас вместе: 4 233 498

Класс / Klass (2007) BDRip


 
 
RSS
Начать новую тему   Ответить на тему    Торрент-трекер NNM-Club -> Архив торрентов -> Архив Видео. Кино, Театра
Автор Сообщение
Marioxo ®
Стаж: 11 лет 5 мес.
Сообщений: 61
Ratio: 8.309
Раздал: 3.58 TB
Поблагодарили: 10500
100%
russia.gif
Класс / Klass (2007) BDRip
Русское название: Класс
Оригинальное название: Klass
Год выпуска: 2007
Производство: Эстония
Жанр: Драма

Описание фильма:
Обычная эстонская школа, выпускной класс. Парень по имени Йозеп постоянно терпит насмешки и издевательства со стороны одноклассников. Никогда не отвечая на выпады, он провоцирует их заходить в глупых «шутках» все дальше и дальше, до тех пор, пока за него не заступился один из бывших насмешников — Каспар. В классе начинается противостояние, которое постепенно накаляется, приближая неминуемую развязку…

Режиссер: Ильмар Рааг
Актеры: Валло Кирс, Пярт Уусберг, Лаури Педайя, Паула Солвак, Микк Мяги, Риина Риес, Йонас Паас, Кади Метсла, Трийн Тенсо, Вирго Эрнитс

Продолжительность: 01:37:35
Перевод: Многоголосый закадровый (Кармен Видео)
Язык субтитров: Отсутствуют

16+ - зрителям, достигшим 16 лет



Дата мировой премьеры: 16 марта 2007
Дата российской премьеры: 1 апреля 2010
Дата выхода DVD релиза: 14 апреля 2010

Видеокодек: Xvid
Битрейт видео: ~929 kbps avg
Размер кадра: 656x368
Качество видео: BDRip
Аудиокодек: MP3 2 ch
Битрейт аудио: ~128.00 kbps avg
Общее
Полное имя : D:\Торренты на раздачу\Класс\Klass.avi
Формат : AVI
Формат/Информация : Audio Video Interleave
Размер файла : 745 Мбайт
Продолжительность : 1 ч. 37 м.
Общий поток : 1067 Кбит/сек
Программа кодирования : VirtualDubMod 1.5.10.3 | www.virtualdub-fr.org || (build 2550/release)
Библиотека кодирования : VirtualDubMod build 2550/release

Видео
Идентификатор : 0
Формат : MPEG-4 Visual
Профиль формата : Advanced Simple@L5
Параметр BVOP формата : 1
Параметр QPel формата : Нет
Параметр GMC формата : Без точки перехода
Параметр матрицы формата : Выборочная
Идентификатор кодека : XVID
Идентификатор кодека/Подсказка : XviD
Продолжительность : 1 ч. 37 м.
Битрейт : 930 Кбит/сек
Ширина : 656 пикселей
Высота : 368 пикселей
Соотношение сторон : 16:9
Частота кадров : 25,000 кадров/сек
Цветовое пространство : YUV
Субдискретизация насыщенности : 4:2:0
Битовая глубина : 8 бит
Тип развёртки : Прогрессивная
Метод сжатия : С потерями
Бит/(Пиксели*Кадры) : 0.154
Размер потока : 649 Мбайт (87%)
Библиотека кодирования : XviD 65

Аудио
Идентификатор : 1
Формат : MPEG Audio
Версия формата : Version 1
Профиль формата : Layer 3
Идентификатор кодека : 55
Идентификатор кодека/Подсказка : MP3
Продолжительность : 1 ч. 37 м.
Вид битрейта : Постоянный
Битрейт : 128 Кбит/сек
Каналы : 2 канала
Частота : 48,0 КГц
Метод сжатия : С потерями
Размер потока : 89,3 Мбайт (12%)
Выравнивание : Соединение по промежуткам
Продолжительность промежутка : 40 мс. (1,00 видеокадр)
Время предзагрузки промежутка : 504 мс.
Библиотека кодирования : LAME3.98r
Настройки программы : -m s -V 4 -q 0 -lowpass 17 -b 128
Скриншоты:


Все релизы "Класс" на сайте

Время раздачи: ~ С 14:00 до 03:00 (10-15 скачавших)
[NNM-Club.ru]_Klass.torrent
 Торрент: Платиновая раздача  Зарегистрирован
 
Скачать


Примагнититься
 Зарегистрирован:   31 Май 2013 16:19:49
 Размер:   745 MB  (
 Рейтинг:   4.9 (Голосов: 41)
 Поблагодарили:   117
 Проверка:   Оформление проверено модератором 01 Июн 2013 08:48:00
Как cкачать  ·  Как раздать  ·  Правильно оформить  ·  Поднять ратио!  
semenich2
Стаж: 13 лет 6 мес.
Сообщений: 735
Ratio: 2.932
79.11%
хорошее кино, смотрел давно, советую всем
Firefeniks
Стаж: 12 лет 11 мес.
Сообщений: 17
Ratio: 12.386
Поблагодарили: 67
100%
russia.gif
замечательный фильм, смотрел давно, тоже всем советую
Жан Габен
Стаж: 12 лет 4 мес.
Сообщений: 655
Ratio: 952.016
Поблагодарили: 7812
100%
Странно, почему ограничение по возрасту не стоит, т.к. в конце "фильма" конкретно показана сцена минета между учениками.
Фильм полное г-о. Никому не советую.
n0n-pro
Стаж: 13 лет 6 мес.
Сообщений: 3
Ratio: 0.671
100%
kazakhstan.gif
***** фильм!

 !  Примечание от Alex_shadow:
Всем участникам форума запрещается:
2.2. Использовать в общении на форуме нецензурную брань или эвфемизмы, обсценную лексику и фразеологию, включая завуалированный мат, а также любое их цитирование.
sas275
Стаж: 16 лет 8 мес.
Сообщений: 276
Ratio: 12.952
Поблагодарили: 1410
100%
russia.gif
Замечательный фильм, есть продолжение в виде сериала:
Класс: жизнь после / Klass: elu pärast Серии: 1-7 (7)
AKovalchuk
Стаж: 12 лет 5 мес.
Сообщений: 80
Ratio: 23.55
100%
sas спс
leonleon920
Стаж: 11 лет 7 мес.
Сообщений: 2
Ratio: 7.536
0.62%
Спасебо велм реалстичны sas275 спасебо

 !  Примечание от Alex_shadow:
Всем участникам форума запрещается:
2.12. Использовать в общении на форуме язык, отличный от литературного русского, и шрифт, отличный от кириллического (транслит); намеренно пренебрегать правилами русского языка, коверкать его и злоупотреблять сленгом.
Топик был перенесен из форума Фильмы ближнего зарубежья в форум Архив Видео



Исправил релиз - напиши ЛС karfagen1975, дав ссылку на релиз.
Если нет ответа 24 часа - нажми на кнопку "Обратить внимание модераторов".
Показать сообщения:   
Начать новую тему   Ответить на тему    Торрент-трекер NNM-Club -> Архив торрентов -> Архив Видео. Кино, Театра Часовой пояс: GMT + 3
Страница 1 из 1