Классический форум-трекер
canvas not supported
Нас вместе: 4 233 686

Чокнутый профессор / The Nutty Professor (2008) DVDRip


 
 
RSS
Начать новую тему   Ответить на тему    Торрент-трекер NNM-Club -> Мультфильмы -> Зарубежные Мультфильмы 21-го века (SD)
Автор Сообщение
Marioxo ®
Стаж: 11 лет 6 мес.
Сообщений: 61
Ratio: 8.309
Раздал: 3.58 TB
Поблагодарили: 10500
100%
russia.gif
Чокнутый профессор / The Nutty Professor (2008) DVDRip
Русское название: Чокнутый профессор
Оригинальное название: The Nutty Professor
Год выпуска: 2008
Производство: США
Жанр: Комедия, Детский

Описание:
Профессор Юлиус Келп создал зелье, с помощью которого можно изменять личность. В один прекрасный момент его любимый внучок находит секретный эликсир дедушки и в полной мере проявляется свой разрушительный характер.



Режиссер: Логан МакФерсон, Пол Тейлор, Чарльз Адлер
Персонажи: Джерри Льюис, Дрейк Белл, Полина Гиллис, Бриттни Ирвин, Логан МакФерсон, Эндрю Френсис, Брайан Драммонд, Даниэль Льюис

Продолжительность: 01:12:56
Перевод: Дублированный
Язык субтитров: Отсутствуют

Видеокодек: Xvid
Битрейт видео: ~1963 kbps avg
Размер кадра: 720x400
Качество видео: DVDRip
Аудио #1: AC3 5.1, 448 kbps (дубляж)
Аудио #2: AC3 5.1, 448 kbps (оригинал)
Общее
Полное имя : D:\Торренты на раздачу\Чокнутый профессор\The_Nutty_Professor.avi
Формат : AVI
Формат/Информация : Audio Video Interleave
Размер файла : 1,46 Гбайт
Продолжительность : 1 ч. 12 м.
Общий поток : 2873 Кбит/сек
Программа кодирования : VirtualDubMod 1.5.10.2 (build 2540/release)
Библиотека кодирования : VirtualDubMod build 2540/release

Видео
Идентификатор : 0
Формат : MPEG-4 Visual
Профиль формата : Advanced Simple@L5
Параметр BVOP формата : 1
Параметр QPel формата : Нет
Параметр GMC формата : Без точки перехода
Параметр матрицы формата : Выборочная
Идентификатор кодека : XVID
Идентификатор кодека/Подсказка : XviD
Продолжительность : 1 ч. 12 м.
Битрейт : 1963 Кбит/сек
Ширина : 720 пикселей
Высота : 400 пикселей
Соотношение сторон : 16:9
Частота кадров : 25,000 кадров/сек
Цветовое пространство : YUV
Субдискретизация насыщенности : 4:2:0
Битовая глубина : 8 бит
Тип развёртки : Прогрессивная
Метод сжатия : С потерями
Бит/(Пиксели*Кадры) : 0.273
Размер потока : 1,00 Гбайт (68%)
Библиотека кодирования : XviD 65

Аудио #1
Идентификатор : 1
Формат : AC-3
Формат/Информация : Audio Coding 3
Расширение режима : CM (complete main)
Параметр Endianness формата : Big
Идентификатор кодека : 2000
Продолжительность : 1 ч. 12 м.
Вид битрейта : Постоянный
Битрейт : 448 Кбит/сек
Каналы : 6 каналов
Расположение каналов : Front: L C R, Side: L R, LFE
Частота : 48,0 КГц
Битовая глубина : 16 бит
Метод сжатия : С потерями
Задержка видео : 20 мс.
Размер потока : 234 Мбайт (16%)
Выравнивание : Разделение по промежуткам
Продолжительность промежутка : 40 мс. (1,00 видеокадр)
Время предзагрузки промежутка : 500 мс.

Аудио #2
Идентификатор : 2
Формат : AC-3
Формат/Информация : Audio Coding 3
Расширение режима : CM (complete main)
Параметр Endianness формата : Big
Идентификатор кодека : 2000
Продолжительность : 1 ч. 12 м.
Вид битрейта : Постоянный
Битрейт : 448 Кбит/сек
Каналы : 6 каналов
Расположение каналов : Front: L C R, Side: L R, LFE
Частота : 48,0 КГц
Битовая глубина : 16 бит
Метод сжатия : С потерями
Размер потока : 234 Мбайт (16%)
Выравнивание : Разделение по промежуткам
Продолжительность промежутка : 40 мс. (1,00 видеокадр)
Время предзагрузки промежутка : 500 мс.
Скриншоты:


Все релизы "Чокнутый профессор" на сайте

Время раздачи: ~ С 14:00 до 03:00 (10-15 скачавших)
[NNM-Club.ru]_The_Nutty_Professor.torrent
 Торрент: Платиновая раздача  Зарегистрирован
 
Скачать


Примагнититься
 Зарегистрирован:   31 Май 2013 18:14:44
 Размер:   1.46 GB  (
 Рейтинг:   4.7 (Голосов: 27)
 Поблагодарили:   131
 Проверка:   Оформление проверено модератором 31 Май 2013 19:18:18
Как cкачать  ·  Как раздать  ·  Правильно оформить  ·  Поднять ратио!  
Показать сообщения:   
Начать новую тему   Ответить на тему    Торрент-трекер NNM-Club -> Мультфильмы -> Зарубежные Мультфильмы 21-го века (SD) Часовой пояс: GMT + 3
Страница 1 из 1