Классический форум-трекер
canvas not supported
Нас вместе: 4 232 304

Последний звонок / Last Call (2012) HDTVRip [H.264/720p-LQ]


 
 
RSS
Начать новую тему   Ответить на тему    Торрент-трекер NNM-Club -> Зарубежное кино -> Зарубежные Фильмы (HD, FHD)
Автор Сообщение
eXPpectant ®
Стаж: 14 лет 5 мес.
Сообщений: 2457
Ratio: 1628.264
Раздал: 18.08 TB
Поблагодарили: 308063
100%
Откуда: Нижний Тагил + Дмитров
russia.gif
Последний звонок / Last Call (2012) HDTVRip
«А ты готов к отвязной вечеринке?»
Русское название: Последний звонок
Оригинальное название: Last Call
Год выпуска: 2012
Производство: США
Жанр: Комедия
Описание фильма:
Два лентяя и неудачника Дэнни и Фил, по стечению обстоятельств, вынуждены какое-то время управлять пабом их дяди Пита, который временно находится в тюрьме за дебош. Ребята придумывают разные, с их точки зрения, «креативные» способы извлечь прибыль — от превращения ирландского паба в стриптиз-бар, к ужасу их подружек, до нелегального клуба по продаже крепкого алкоголя подросткам, к явному неудовольствию полиции.
Режиссер: Грег Гарт
Продюсер: Скотт Доннелли, Грег Гарт, Спенс Джексон
Актеры: Трэвис Ван Винкл, Райан Хансен, Кристофер Ллойд, Диора Бэрд, Клинт Ховард, Джон Кэподис, Ричард Рили, Дэвид ДеЛуис, Скотт Доннелли, Тара Рид
Продолжительность: 01:20:44
Перевод: Дублированный (НТВ+)
Язык субтитров: Отсутствуют

Дата мировой премьеры: 12 апреля 2012
Дата российской премьеры: 11 апреля 2013, «АКМ»
Видеокодек: MPEG-4 AVC/H.264
Битрейт видео: ~2850 Кбит/с
Размер кадра: 1280x692
Качество видео: HDTVRip
Аудиокодек: AC3 5.1
Битрейт аудио: 448 Кбит/с
Общее
Уникальный идентификатор : 219932241901649349793039304218273594971 (0xA57568B6F0EEF8269F60D5A466433E5B)
Полное имя : D:\Торрент раздача\Poslednij.zvonok.2012.x264.HDTVRip(720p).mkv
Формат : Matroska
Версия формата : Version 2
Размер файла : 1,86 Гбайт
Продолжительность : 1 ч. 20 м.
Общий поток : 3298 Кбит/сек
Дата кодирования : UTC 2013-05-31 13:34:25
Программа кодирования : mkvmerge v5.8.0 ('No Sleep / Pillow') built on Sep 2 2012 15:37:04
Библиотека кодирования : libebml v1.2.3 + libmatroska v1.3.0

Видео
Идентификатор : 1
Формат : AVC
Формат/Информация : Advanced Video Codec
Профиль формата : High@L4.1
Параметр CABAC формата : Да
Параметр ReFrames формата : 9 кадров
Идентификатор кодека : V_MPEG4/ISO/AVC
Продолжительность : 1 ч. 20 м.
Битрейт : 2850 Кбит/сек
Ширина : 1280 пикселей
Высота : 692 пикселя
Соотношение сторон : 1,85:1
Режим частоты кадров : Постоянный
Частота кадров : 25,000 кадров/сек
Цветовое пространство : YUV
Субдискретизация насыщенности : 4:2:0
Битовая глубина : 8 бит
Тип развёртки : Прогрессивная
Бит/(Пиксели*Кадры) : 0.129
Размер потока : 1,57 Гбайт (84%)
Библиотека кодирования : x264 core 125 r2208 d9d2288
Настройки программы : cabac=1 / ref=9 / deblock=1:-2:-2 / analyse=0x3:0x133 / me=umh / subme=10 / psy=1 / psy_rd=1.00:0.00 / mixed_ref=1 / me_range=32 / chroma_me=1 / trellis=2 / 8x8dct=1 / cqm=0 / deadzone=21,11 / fast_pskip=0 / chroma_qp_offset=-2 / threads=6 / lookahead_threads=1 / sliced_threads=0 / nr=0 / decimate=0 / interlaced=0 / bluray_compat=0 / constrained_intra=0 / bframes=8 / b_pyramid=2 / b_adapt=2 / b_bias=0 / direct=3 / weightb=1 / open_gop=0 / weightp=2 / keyint=250 / keyint_min=25 / scenecut=40 / intra_refresh=0 / rc=2pass / mbtree=0 / bitrate=2850 / ratetol=1.0 / qcomp=0.60 / qpmin=0 / qpmax=69 / qpstep=4 / cplxblur=20.0 / qblur=0.5 / ip_ratio=1.40 / pb_ratio=1.30 / aq=1:0.80
Default : Да
Forced : Нет

Аудио
Идентификатор : 2
Формат : AC-3
Формат/Информация : Audio Coding 3
Расширение режима : CM (complete main)
Параметр Endianness формата : Big
Идентификатор кодека : A_AC3
Продолжительность : 1 ч. 20 м.
Вид битрейта : Постоянный
Битрейт : 448 Кбит/сек
Каналы : 6 каналов
Расположение каналов : Front: L C R, Side: L R, LFE
Частота : 48,0 КГц
Битовая глубина : 16 бит
Метод сжатия : С потерями
Размер потока : 259 Мбайт (14%)
Default : Да
Forced : Нет
Скриншоты:

Время раздачи: 24/7 по возможности
[NNM-Club.ru]_Poslednij.zvonok.2012.x264.HDTVRip(720p).torrent
 Торрент: Платиновая раздача  Зарегистрирован
 
Скачать


Примагнититься
 Зарегистрирован:   31 Май 2013 19:05:14
 Размер:   1.86 GB  (
 Рейтинг:   4.7 (Голосов: 54)
 Поблагодарили:   189
 Проверка:   Оформление проверено модератором 01 Июн 2013 18:35:47
Как cкачать  ·  Как раздать  ·  Правильно оформить  ·  Поднять ратио!  
zav14
Стаж: 11 лет 10 мес.
Сообщений: 245
Ratio: 0.751
100%
russia.gif
Жуть пробирает, когда смотрю на рейтинги. Кто видел ? Смотреть или забить как на многие подростковые, американские "комедии" ?
|M|a|D|a|R|a|
Только чтение
Стаж: 14 лет 3 мес.
Сообщений: 262
Ratio: 3.676
Поблагодарили: 666
100%
pirates.png
не удивительно что рейтинг такой, что можно ждать от черного юмора в стиле 'Очень страшное кино' ! Фильм на один раз, под Особое ;) настроение. Уверен, сомневающимся лучше не качать
socet111
Стаж: 13 лет 2 мес.
Сообщений: 515
Ratio: 8.595
100%
Откуда: Киев
ukraine.gif
Редкостный бред.
Marchyk-D​idgei23​
Стаж: 11 лет 8 мес.
Сообщений: 15
Ratio: 1.572
100%
russia.gif
У меня у одного что ли только звук есть а изображение чёрный кран
moryak-pogran
Стаж: 13 лет 3 мес.
Сообщений: 49
Ratio: 18.779
100%
Откуда: Кингисепп
russia.gif
Одноразовый......фильм
6Chikper6
Стаж: 14 лет
Сообщений: 254
Ratio: 0.693
100%
romania.gif
Спасибо! Но вата полная!!!
Показать сообщения:   
Начать новую тему   Ответить на тему    Торрент-трекер NNM-Club -> Зарубежное кино -> Зарубежные Фильмы (HD, FHD) Часовой пояс: GMT + 3
Страница 1 из 1