Классический форум-трекер
canvas not supported
Нас вместе: 4 232 971

Джек – покоритель великанов / Jack The Giant Slayer (2013) HDRip [Line]


 
 
RSS
Начать новую тему   Ответить на тему    Торрент-трекер NNM-Club -> Архив торрентов -> Архив Видео. Кино, Театра
Автор Сообщение
Marioxo ®
Стаж: 11 лет 5 мес.
Сообщений: 61
Ratio: 8.309
Раздал: 3.58 TB
Поблагодарили: 10500
100%
russia.gif
Джек – покоритель великанов / Jack The Giant Slayer (2013) HDRip
Русское название: Джек – покоритель великанов
Оригинальное название: Jack The Giant Slayer
Год выпуска: 2013
Производство: США
Жанр: Фэнтези, Приключения
Перевод: Дублированный [Чистый звук]
Субтитры: Отсутствуют

Дата мировой премьеры: 27 февраля 2013
Дата российской премьеры: 21 марта 2013
Дата выхода DVD релиза: 20 июня 2013

Режиссер: Брайан Сингер / Bryan Singer
Актеры: Николас Холт, Элинор Томлинсон, Юэн МакГрегор, Стэнли Туччи, Эдди Марсан, Юэн Бремнер, Иэн МакШейн, Кристофер Фэйрбэнк, Саймон Лоу, Мингус Джонстон

Описание фильма:
История начинается с похищения принцессы, что грозит нарушить хрупкий мир между людьми и великанами. Юный фермер возглавляет вылазку в царство гигантов в надежде спасти девушку.



Продолжительность: 01:54:20
Качество видео: HDRip

Видеокодек: Xvid
Битрейт видео: ~776 Kbit/s
Размер кадра: 688 x 288
Аудиокодек: MP3, 2.0
Битрейт аудио: 128 Kbit/s
Общее
Полное имя : D:\Торренты на раздачу\Джек – покоритель великанов\Jack_The_Giant_Slayer.avi
Формат : AVI
Формат/Информация : Audio Video Interleave
Размер файла : 747 Мбайт
Продолжительность : 1 ч. 54 м.
Общий поток : 913 Кбит/сек
Программа кодирования : VirtualDubMod 1.5.10.3 (build 2550/release)
Библиотека кодирования : VirtualDubMod build 2550/release

Видео
Идентификатор : 0
Формат : MPEG-4 Visual
Профиль формата : Advanced Simple@L5
Параметр BVOP формата : 1
Параметр QPel формата : Нет
Параметр GMC формата : Без точки перехода
Параметр матрицы формата : Выборочная
Идентификатор кодека : XVID
Идентификатор кодека/Подсказка : XviD
Продолжительность : 1 ч. 54 м.
Битрейт : 776 Кбит/сек
Ширина : 688 пикселей
Высота : 288 пикселей
Соотношение сторон : 2,40:1
Частота кадров : 23,976 кадра/сек
Цветовое пространство : YUV
Субдискретизация насыщенности : 4:2:0
Битовая глубина : 8 бит
Тип развёртки : Прогрессивная
Метод сжатия : С потерями
Бит/(Пиксели*Кадры) : 0.163
Размер потока : 634 Мбайт (85%)
Библиотека кодирования : XviD 1.2.1 (UTC 2008-12-04)

Аудио
Идентификатор : 1
Формат : MPEG Audio
Версия формата : Version 1
Профиль формата : Layer 3
Идентификатор кодека : 55
Идентификатор кодека/Подсказка : MP3
Продолжительность : 1 ч. 54 м.
Вид битрейта : Постоянный
Битрейт : 128 Кбит/сек
Каналы : 2 канала
Частота : 48,0 КГц
Метод сжатия : С потерями
Размер потока : 105 Мбайт (14%)
Выравнивание : Соединение по промежуткам
Продолжительность промежутка : 42 мс. (1,00 видеокадр)
Время предзагрузки промежутка : 504 мс.
Библиотека кодирования : LAME3.99r
Настройки программы : -m s -V 4 -q 2 -lowpass 17 -b 128
Скриншоты:


Все релизы "Джек – покоритель великанов" на сайте

Время раздачи: ~ С 14:00 до 03:00 (10 - 15 скачавших)
[NNM-Club.ru]_Jack_The_Giant_Slayer.torrent
 Торрент: Платиновая раздача  Зарегистрирован
 
Скачать


Примагнититься
 Зарегистрирован:   03 Июн 2013 18:02:26
 Размер:   747 MB  (
 Рейтинг:   4.4 (Голосов: 107)
 Поблагодарили:   378
 Проверка:   Оформление проверено модератором 03 Июн 2013 22:34:07
Как cкачать  ·  Как раздать  ·  Правильно оформить  ·  Поднять ратио!  
bolloid
Стаж: 13 лет 6 мес.
Сообщений: 41
Ratio: 5.196
0.71%
ussr.gif
ну короче - школьники (в районе 9-10 класса) попытались снять кино... получилось соответственно! ну как помягче сказать?.... получилось соответственно!!
Топик был перенесен из форума Зарубежные Новинки (HD*Rip/LQ, DVDRip) в форум Архив Видео

Причина переноса: на трекере доступен звук с лицензии
Lelya_K
Показать сообщения:   
Начать новую тему   Ответить на тему    Торрент-трекер NNM-Club -> Архив торрентов -> Архив Видео. Кино, Театра Часовой пояс: GMT + 3
Страница 1 из 1