Классический форум-трекер
canvas not supported
Нас вместе: 4 232 449

Человек дождя / Rain Man (1988) HDRip


 
 
RSS
Начать новую тему   Ответить на тему    Торрент-трекер NNM-Club -> Классика кино и Старые фильмы до 90-х -> Зарубежная Классика (SD)
Автор Сообщение
Marioxo ®
Стаж: 11 лет 4 мес.
Сообщений: 61
Ratio: 8.309
Раздал: 3.58 TB
Поблагодарили: 10499
100%
russia.gif
Человек дождя / Rain Man (1988) HDRip
Русское название: Человек дождя
Оригинальное название: Rain Man
Год выпуска: 1988
Жанр: Драма

Описание фильма:
У Чарли, грубоватого и эгоистичного молодого повесы, в наследство от отца остались лишь розовые кусты да «Бьюик» 49-го года. Внезапным «сюрпризом» для него стало открытие того, что львиная доля наследства оставлена отцом его больному аутизмом брату Раймонду.
Задавшись целью отобрать свою «справедливую долю» семейного достояния, Чарли похищает старшего брата и держит его заложником. Но то, что было задумано им из эгоизма, перерастает в волшебную одиссею дружбы и самоосмысления, которая разводит границы обособленного мирка Раймонда, а Чарли позволяет вырваться из оков своей некогда бесчувственной души.



Режиссер: Барри Левинсон / Barry Levinson
Актеры: Дастин Хоффман, Том Круз, Валерия Голино, Джералд Р. Молен, Джек Мёрдок, Майкл Д. Робертс, Ральф Сеймур, Люсинда Дженни, Бонни Хант, Ким Робиллард

Продолжительность: 02:13:50
Перевод: Дублированный
Язык субтитров: Отсутствуют

Дата мировой премьеры: 12 декабря 1988
Дата выхода DVD релиза: 23 июля 2009

Видеокодек: Xvid
Битрейт видео: ~700 kbps avg
Размер кадра: 656x352
Качество видео: HDRip
Аудиокодек: MP3, 2.0
Битрейт аудио: ~112.00 kbps avg
Общее
Полное имя : D:\Торренты на раздачу\Человек дождя\Rain_Man.avi
Формат : AVI
Формат/Информация : Audio Video Interleave
Размер файла : 787 Мбайт
Продолжительность : 2 ч. 13 м.
Общий поток : 822 Кбит/сек
Программа кодирования : VirtualDubMod 1.5.10.2 (build 2540/release)
Библиотека кодирования : VirtualDubMod build 2540/release

Видео
Идентификатор : 0
Формат : MPEG-4 Visual
Профиль формата : Advanced Simple@L5
Параметр BVOP формата : 2
Параметр QPel формата : Нет
Параметр GMC формата : Без точки перехода
Параметр матрицы формата : Выборочная
Идентификатор кодека : XVID
Идентификатор кодека/Подсказка : XviD
Продолжительность : 2 ч. 13 м.
Битрейт : 701 Кбит/сек
Ширина : 656 пикселей
Высота : 352 пикселя
Соотношение сторон : 1,85:1
Частота кадров : 23,976 кадра/сек
Цветовое пространство : YUV
Субдискретизация насыщенности : 4:2:0
Битовая глубина : 8 бит
Тип развёртки : Прогрессивная
Метод сжатия : С потерями
Бит/(Пиксели*Кадры) : 0.127
Размер потока : 671 Мбайт (85%)
Библиотека кодирования : XviD 1.2.1 (UTC 2008-12-04)

Аудио
Идентификатор : 1
Формат : MPEG Audio
Версия формата : Version 1
Профиль формата : Layer 3
Режим : Joint stereo
Расширение режима : MS Stereo
Идентификатор кодека : 55
Идентификатор кодека/Подсказка : MP3
Продолжительность : 2 ч. 13 м.
Вид битрейта : Постоянный
Битрейт : 112 Кбит/сек
Каналы : 2 канала
Частота : 48,0 КГц
Метод сжатия : С потерями
Размер потока : 107 Мбайт (14%)
Выравнивание : Разделение по промежуткам
Продолжительность промежутка : 42 мс. (1,00 видеокадр)
Время предзагрузки промежутка : 500 мс.
Скриншоты:


Все релизы "Человек дождя" на сайте

Время раздачи: ~ С 14:00 до 03:00 (10-15 скачавших)
[NNM-Club.ru]_Rain_Man.torrent
 Торрент: Платиновая раздача  Зарегистрирован
 
Скачать


Примагнититься
 Зарегистрирован:   04 Июн 2013 20:04:46
 Размер:   787 MB  (
 Рейтинг:   4.8 (Голосов: 127)
 Поблагодарили:   338
 Проверка:   Оформление проверено модератором 04 Июн 2013 22:50:32
Как cкачать  ·  Как раздать  ·  Правильно оформить  ·  Поднять ратио!  
Colac
Стаж: 11 лет 6 мес.
Сообщений: 135
Ratio: 14.965
100%
Откуда: Vadul lui voda
moldova.gif
хороший фильмы
impasto
Стаж: 13 лет 11 мес.
Сообщений: 59
Ratio: 13.178
100%
прекрасный фильм. большое спасибо. IMHO - СМОТРЕТЬ ВСЕМ!!!!!!!!!!!!!
puner
Стаж: 11 лет 7 мес.
Сообщений: 108
Ratio: 4.28
0.48%
не понимаю, чем он хорош? полный бред.
dnepr52
Стаж: 13 лет 5 мес.
Сообщений: 42
Ratio: 0.854
100%
да, ни секса ни стрельбы - действительно "бред"
nkt#1
Стаж: 13 лет 3 мес.
Сообщений: 66
Ratio: 9.942
100%
dnepr52 писал(а): Перейти к сообщению
да, ни секса ни стрельбы - действительно "бред"

поддерживаю :лол:
pesnjar
Стаж: 13 лет 11 мес.
Сообщений: 340
Ratio: 2.13
100%
"А чё такой большой размер? А разбейте по 100 мб и залейте на рапиду?!" :смех:

Я думал, что таких мерзопакостных рипов с такими параметрами уже не осталось... ан нет, ошибся.
Скорее всего нужно перенести в ветку видео для мобил.
Zlobny Karlik
Стаж: 11 лет 11 мес.
Сообщений: 128
Ratio: 209.453
Поблагодарили: 1
100%
belarus.gif
pesnjar писал(а): Перейти к сообщению
"А чё такой большой размер? А разбейте по 100 мб и залейте на рапиду?!" :смех:

Я думал, что таких мерзопакостных рипов с такими параметрами уже не осталось... ан нет, ошибся.
Скорее всего нужно перенести в ветку видео для мобил.

Хороший размер.Специально качаю такие релизы для старенького медиаплеера Mediabox PL-111,подключенного к CRT-TV 25".Для этой связки такие рипы - самое оно.Всегда благодарен за такой размер и кодек.
А фильм - вещь и смотрится великолепно в любом размере.Ведь главное в этом фильме - не спецэффекты(как в большинстве современных фильмов),а великолепная игра актёров и отличная работа режиссёра и его команды.
PLAyLyova
Стаж: 13 лет 1 мес.
Сообщений: 98
Ratio: 2.194
32.38%
russia.gif
Классика, отличная
alex160361
Стаж: 11 лет 10 мес.
Сообщений: 2
Ratio: 0.331
100%
Отличный фильм ,кому не нравится не качайте , качайте маньячные
Показать сообщения:   
Начать новую тему   Ответить на тему    Торрент-трекер NNM-Club -> Классика кино и Старые фильмы до 90-х -> Зарубежная Классика (SD) Часовой пояс: GMT + 3
Страница 1 из 1